1. [IMG]http://i.imgur.com/6zTGh1Y.jpg[/IMG]
  2. Source: NTSC.DVDR-Mr Tumble - Thanks bro
  3. http://www.imdb.com/title/tt1930458/
  4. Terrified commuters are on the ride of their lives when terrorists send a subway train speeding out of control during rush hour. With the saboteur among them, a group of citizens are now trapped underground and in a race against time if they hope to see daylight again. Full of fast-paced action and suspense, Redline is a thriller that will have you holding on for safety.
  5. General
  6. Complete name : Red Line 2013 DVDRip x264 AAC-BadMeetsEvil.mp4
  7. Format : MPEG-4
  8. Format profile : Base Media
  9. Codec ID : isom
  10. File size : 1 023 MiB
  11. Duration : 1h 26mn
  12. Overall bit rate mode : Variable
  13. Overall bit rate : 1 646 Kbps
  14. Encoded date : UTC 2013-07-10 07:06:41
  15. Tagged date : UTC 2013-07-10 07:06:41
  16. Video
  17. ID : 1
  18. Format : AVC
  19. Format/Info : Advanced Video Codec
  20. Format profile : [email protected]
  21. Format settings, CABAC : Yes
  22. Format settings, ReFrames : 3 frames
  23. Codec ID : avc1
  24. Codec ID/Info : Advanced Video Coding
  25. Duration : 1h 26mn
  26. Bit rate mode : Variable
  27. Bit rate : 1 309 Kbps
  28. Maximum bit rate : 40.0 Mbps
  29. Width : 720 pixels
  30. Height : 400 pixels
  31. Display aspect ratio : 16:9
  32. Frame rate mode : Constant
  33. Frame rate : 23.976 fps
  34. Color space : YUV
  35. Chroma subsampling : 4:2:0
  36. Bit depth : 8 bits
  37. Scan type : Progressive
  38. Bits/(Pixel*Frame) : 0.190
  39. Stream size : 814 MiB (79%)
  40. Writing library : x264 core 133 r2334 a3ac64b
  41. Audio
  42. ID : 2
  43. Format : AAC
  44. Format/Info : Advanced Audio Codec
  45. Format profile : LC
  46. Codec ID : 40
  47. Duration : 1h 26mn
  48. Bit rate mode : Variable
  49. Bit rate : 333 Kbps
  50. Maximum bit rate : 415 Kbps
  51. Channel(s) : 6 channels
  52. Channel positions : Front: L C R, Side: L R, LFE
  53. Sampling rate : 48.0 KHz
  54. Compression mode : Lossy
  55. Stream size : 207 MiB (20%)
  56. Language : English
  57. Encoded date : UTC 2013-07-10 00:12:46
  58. Tagged date : UTC 2013-07-10 07:08:26
  59. [img]http://i.imgur.com/JaRwx1A.png[/img]
  60. [img]http://i.imgur.com/nQjPzs9.png[/img]
  61. [img]http://i.imgur.com/xt7bVro.png[/img]
  62. [img]http://i.imgur.com/gRmA9uz.png[/img]
Comments powered by Disqus