1. ## ## #### ## ## ######## ###### ## ## #######
  2. ## ## ## ## ## ## ## ## ### ### ## ##
  3. ## ## ## ## ## ## ## #### #### ## ##
  4. ######### ## ## ## ###### ####### ## ## ### ## #######
  5. ## ## ## ## ## ## ## ## ## ## ##
  6. ## ## ## ## ## ## ## ## ## ## ## ##
  7. ## ## #### ### ######## ###### ## ## #######
  8. ########### Thx Hive - CM8 Doing It Right The First Time ###########
  9. [IMG]http://img163.imageshack.us/img163/9572/homesweethomeb.jpg[/IMG]
  10. Home.Sweet.Home.2013.HDRip.XVID.AC3.HQ.Hive-CM8
  11. Source: 720p Web-DL Webios - thx
  12. Video.: 720x304 @bitrate 1700 2pass
  13. Audio.: English AC3 5.1 @384
  14. Subs..: Yes, English in srt /subs
  15. Sample: Yes, included
  16. IMDb..: http://www.imdb.com/title/tt2069798/
  17. ENCODE
  18. brightness, contrast, rgb adjusted as needed
  19. added sharpness and denoise
  20. got very nice
  21. enjoy
  22. General
  23. Complete name : Home.Sweet.Home.2013.HDRip.XVID.AC3.HQ.Hive-CM8.avi
  24. Format : AVI
  25. Format/Info : Audio Video Interleave
  26. File size : 1.19 GiB
  27. Duration : 1h 21mn
  28. Overall bit rate : 2 093 Kbps
  29. Writing application : Nandub v1.0rc2
  30. Writing library : Nandub build 1853/release
  31. Video
  32. ID : 0
  33. Format : MPEG-4 Visual
  34. Format profile : Advanced Simple@L5
  35. Format settings, BVOP : 2
  36. Format settings, QPel : Yes
  37. Format settings, GMC : No warppoints
  38. Format settings, Matrix : Default (H.263)
  39. Muxing mode : Packed bitstream
  40. Codec ID : XVID
  41. Codec ID/Hint : XviD
  42. Duration : 1h 21mn
  43. Bit rate : 1 700 Kbps
  44. Width : 720 pixels
  45. Height : 304 pixels
  46. Display aspect ratio : 2.35:1
  47. Frame rate : 23.976 fps
  48. Color space : YUV
  49. Chroma subsampling : 4:2:0
  50. Bit depth : 8 bits
  51. Scan type : Progressive
  52. Compression mode : Lossy
  53. Bits/(Pixel*Frame) : 0.324
  54. Stream size : 992 MiB (81%)
  55. Writing library : XviD 1.2.1 (UTC 2008-12-04)
  56. Audio
  57. ID : 1
  58. Format : AC-3
  59. Format/Info : Audio Coding 3
  60. Mode extension : CM (complete main)
  61. Format settings, Endianness : Big
  62. Codec ID : 2000
  63. Duration : 1h 21mn
  64. Bit rate mode : Constant
  65. Bit rate : 384 Kbps
  66. Channel(s) : 6 channels
  67. Channel positions : Front: L C R, Side: L R, LFE
  68. Sampling rate : 48.0 KHz
  69. Bit depth : 16 bits
  70. Compression mode : Lossy
  71. Stream size : 224 MiB (18%)
  72. Alignment : Split accross interleaves
  73. Interleave, duration : 42 ms (1.00 video frame)
  74. Interleave, preload duration : 500 ms
  75. PLOT
  76. After going broke, Gwen Stevens is forced to return to her abandoned childhood home.
  77. She discovers someone is living in the house and they don't want to leave. Now, Gwen
  78. must fight to protect the only thing she has left - her life.
  79. CAST
  80. Alexandra Boylan ... Gwen Stevens
  81. Raquel Cantu ... Kristi
  82. Christopher Dempsey ... Van
  83. [img]http://img716.imageshack.us/img716/6797/hohohom.png[/img]
  84. [img]http://img266.imageshack.us/img266/8512/56011549.png[/img]
  85. [img]http://img69.imageshack.us/img69/6716/hohhooho.png[/img]
  86. [img]http://img855.imageshack.us/img855/5381/hohobf.png[/img]
  87. [video=http://www.youtube.com/watch?v=PjYGRQChmdE]
  88. GREETZ
  89. ViSiON,SPK,SceneLovers,PRESTiGE,SANTi,3LT0N,YanKeeS,COPYxRIGHT,THC,T0XiC
  90. D2U,LKRG,ADTRG,Feel-Free,KoDeKinG,FLAWL3SS,WBZ,BHRG,26K,NOVA,MAGNET
  91. Unevano,BigVik,Rapeseed,SAFC,goldadvance,KaN1vE,Pinnz,Wayne,TED
  92. SeeN,jtr,Limey,ICONiK,4PlayHD,THEDEN-RG,eXceSs,AKS74u,HiGH
  93. Mr Hive,trepario,stallone,and most P2P groups
  94. Great Work Guys!
  95. LOOKING FOR ANYTHING YOU WANT TO LOOK AND SOUND BETTER
  96. [email protected]
Comments powered by Disqus