1. General
  2. Unique ID : 187018036381628506801922243317571320583 (0x8CB25D17900BE235B86E368B4074FB07)
  3. Complete name : Suits S02E01 1080p Blu-ray Remux AVC DTS-HD MA 5.1 - DTHD.mkv
  4. Format : Matroska
  5. Format version : Version 4
  6. File size : 7.95 GiB
  7. Duration : 43 min 1 s
  8. Overall bit rate mode : Variable
  9. Overall bit rate : 26.5 Mb/s
  10. Movie name : Suits S02E01 1080p Blu-ray Remux AVC DTS-HD MA 5.1 - DTHD
  11. Encoded date : UTC 2016-02-12 01:41:29
  12. Writing application : mkvmerge v8.5.2 ('Crosses') 64bit
  13. Writing library : libebml v1.3.3 + libmatroska v1.4.4
  14. Video
  15. ID : 1
  16. Format : AVC
  17. Format/Info : Advanced Video Codec
  18. Format profile : [email protected]
  19. Format settings : CABAC / 4 Ref Frames
  20. Format settings, CABAC : Yes
  21. Format settings, ReFrames : 4 frames
  22. Codec ID : V_MPEG4/ISO/AVC
  23. Duration : 43 min 1 s
  24. Bit rate mode : Variable
  25. Bit rate : 24.0 Mb/s
  26. Maximum bit rate : 30.0 Mb/s
  27. Width : 1 920 pixels
  28. Height : 1 080 pixels
  29. Display aspect ratio : 16:9
  30. Frame rate mode : Constant
  31. Frame rate : 23.976 (24000/1001) FPS
  32. Standard : NTSC
  33. Color space : YUV
  34. Chroma subsampling : 4:2:0
  35. Bit depth : 8 bits
  36. Scan type : Progressive
  37. Bits/(Pixel*Frame) : 0.483
  38. Stream size : 7.21 GiB (91%)
  39. Language : English
  40. Default : No
  41. Forced : No
  42. Color range : Limited
  43. Color primaries : BT.709
  44. Transfer characteristics : BT.709
  45. Matrix coefficients : BT.709
  46. Audio
  47. ID : 2
  48. Format : DTS XLL
  49. Format/Info : Digital Theater Systems
  50. Commercial name : DTS-HD Master Audio
  51. Codec ID : A_DTS
  52. Duration : 43 min 0 s
  53. Bit rate mode : Variable
  54. Bit rate : 1 863 kb/s
  55. Channel(s) : 6 channels
  56. Channel layout : C L R Ls Rs LFE
  57. Sampling rate : 48.0 kHz
  58. Frame rate : 93.750 FPS (512 SPF)
  59. Bit depth : 16 bits
  60. Compression mode : Lossless
  61. Stream size : 573 MiB (7%)
  62. Language : English
  63. Default : Yes
  64. Forced : No
  65. Text #1
  66. ID : 3
  67. Format : PGS
  68. Codec ID : S_HDMV/PGS
  69. Codec ID/Info : Picture based subtitle format used on BDs/HD-DVDs
  70. Duration : 42 min 6 s
  71. Bit rate : 86.1 kb/s
  72. Count of elements : 1874
  73. Stream size : 25.9 MiB (0%)
  74. Language : English
  75. Default : No
  76. Forced : No
  77. Text #2
  78. ID : 4
  79. Format : PGS
  80. Codec ID : S_HDMV/PGS
  81. Codec ID/Info : Picture based subtitle format used on BDs/HD-DVDs
  82. Duration : 41 min 37 s
  83. Bit rate : 65.3 kb/s
  84. Count of elements : 1070
  85. Stream size : 19.4 MiB (0%)
  86. Language : Spanish
  87. Default : No
  88. Forced : No
  89. Text #3
  90. ID : 5
  91. Format : PGS
  92. Codec ID : S_HDMV/PGS
  93. Codec ID/Info : Picture based subtitle format used on BDs/HD-DVDs
  94. Duration : 41 min 38 s
  95. Bit rate : 53.5 kb/s
  96. Count of elements : 756
  97. Stream size : 15.9 MiB (0%)
  98. Language : Danish
  99. Default : No
  100. Forced : No
  101. Text #4
  102. ID : 6
  103. Format : PGS
  104. Codec ID : S_HDMV/PGS
  105. Codec ID/Info : Picture based subtitle format used on BDs/HD-DVDs
  106. Duration : 41 min 37 s
  107. Bit rate : 70.8 kb/s
  108. Count of elements : 1344
  109. Stream size : 21.1 MiB (0%)
  110. Language : German
  111. Default : No
  112. Forced : No
  113. Text #5
  114. ID : 7
  115. Format : PGS
  116. Codec ID : S_HDMV/PGS
  117. Codec ID/Info : Picture based subtitle format used on BDs/HD-DVDs
  118. Duration : 41 min 36 s
  119. Bit rate : 59.1 kb/s
  120. Count of elements : 1260
  121. Stream size : 17.6 MiB (0%)
  122. Language : French
  123. Default : No
  124. Forced : No
  125. Text #6
  126. ID : 8
  127. Format : PGS
  128. Codec ID : S_HDMV/PGS
  129. Codec ID/Info : Picture based subtitle format used on BDs/HD-DVDs
  130. Duration : 41 min 37 s
  131. Bit rate : 58.0 kb/s
  132. Count of elements : 1048
  133. Stream size : 17.3 MiB (0%)
  134. Language : Italian
  135. Default : No
  136. Forced : No
  137. Text #7
  138. ID : 9
  139. Format : PGS
  140. Codec ID : S_HDMV/PGS
  141. Codec ID/Info : Picture based subtitle format used on BDs/HD-DVDs
  142. Duration : 41 min 56 s
  143. Bit rate : 62.9 kb/s
  144. Count of elements : 1046
  145. Stream size : 18.9 MiB (0%)
  146. Language : Dutch
  147. Default : No
  148. Forced : No
  149. Text #8
  150. ID : 10
  151. Format : PGS
  152. Codec ID : S_HDMV/PGS
  153. Codec ID/Info : Picture based subtitle format used on BDs/HD-DVDs
  154. Duration : 41 min 38 s
  155. Bit rate : 51.8 kb/s
  156. Count of elements : 790
  157. Stream size : 15.4 MiB (0%)
  158. Language : Norwegian
  159. Default : No
  160. Forced : No
  161. Text #9
  162. ID : 11
  163. Format : PGS
  164. Codec ID : S_HDMV/PGS
  165. Codec ID/Info : Picture based subtitle format used on BDs/HD-DVDs
  166. Duration : 41 min 38 s
  167. Bit rate : 49.3 kb/s
  168. Count of elements : 758
  169. Stream size : 14.7 MiB (0%)
  170. Language : Finnish
  171. Default : No
  172. Forced : No
  173. Text #10
  174. ID : 12
  175. Format : PGS
  176. Codec ID : S_HDMV/PGS
  177. Codec ID/Info : Picture based subtitle format used on BDs/HD-DVDs
  178. Duration : 41 min 38 s
  179. Bit rate : 52.9 kb/s
  180. Count of elements : 756
  181. Stream size : 15.8 MiB (0%)
  182. Language : Swedish
  183. Default : No
  184. Forced : No
  185. Menu
  186. 00:00:00.000 : en:Chapter 01
  187. 00:07:00.420 : en:Chapter 02
  188. 00:15:44.360 : en:Chapter 03
  189. 00:28:02.138 : en:Chapter 04
  190. 00:35:21.369 : en:Chapter 05
  191. 00:42:30.047 : en:Chapter 06
Comments powered by Disqus