1. General
  2. Complete name : C:\Users\ddddrelease\Downloads\Creation.Stories.2021.HDRip.XviD.AC3-EVO.mkv st=C-8wuT7bzPztHrwv3SxbhA&e=1626348688.mp4 (convert-video-online.com).mp4
  3. Format : MPEG-4
  4. Format profile : Base Media
  5. Codec ID : isom (isom/iso2/mp41)
  6. File size : 553 MiB
  7. Duration : 1 h 49 min
  8. Overall bit rate : 705 kb/s
  9. Writing application : Lavf58.45.100
  10. Video
  11. ID : 1
  12. Format : HEVC
  13. Format/Info : High Efficiency Video Coding
  14. Format profile : [email protected]@Main
  15. Codec ID : hev1
  16. Codec ID/Info : High Efficiency Video Coding
  17. Duration : 1 h 49 min
  18. Bit rate : 634 kb/s
  19. Width : 720 pixels
  20. Height : 388 pixels
  21. Display aspect ratio : 1.85:1
  22. Frame rate mode : Constant
  23. Frame rate : 25.000 FPS
  24. Color space : YUV
  25. Chroma subsampling : 4:2:0
  26. Bit depth : 8 bits
  27. Scan type : Progressive
  28. Bits/(Pixel*Frame) : 0.091
  29. Stream size : 498 MiB (90%)
  30. Writing library : x265 3.4_RC1+3-18610b4f88bc:[Linux][GCC 9.3.0][64 bit] 8bit
  31. Encoding settings : cpuid=1111039 / frame-threads=4 / wpp / no-pmode / no-pme / no-psnr / no-ssim / log-level=2 / input-csp=1 / input-res=720x388 / interlace=0 / total-frames=0 / level-idc=0 / high-tier=1 / uhd-bd=0 / ref=3 / no-allow-non-conformance / no-repeat-headers / annexb / no-aud / no-hrd / info / hash=0 / no-temporal-layers / open-gop / min-keyint=25 / keyint=250 / gop-lookahead=0 / bframes=4 / b-adapt=2 / b-pyramid / bframe-bias=0 / rc-lookahead=20 / lookahead-slices=0 / scenecut=40 / hist-scenecut=0 / radl=0 / no-splice / no-intra-refresh / ctu=64 / min-cu-size=8 / no-rect / no-amp / max-tu-size=32 / tu-inter-depth=1 / tu-intra-depth=1 / limit-tu=0 / rdoq-level=0 / dynamic-rd=0.00 / no-ssim-rd / signhide / no-tskip / nr-intra=0 / nr-inter=0 / no-constrained-intra / strong-intra-smoothing / max-merge=3 / limit-refs=1 / no-limit-modes / me=1 / subme=2 / merange=57 / temporal-mvp / no-frame-dup / no-hme / weightp / no-weightb / no-analyze-src-pics / deblock=0:0 / sao / no-sao-non-deblock / rd=3 / selective-sao=4 / early-skip / rskip / no-fast-intra / no-tskip-fast / no-cu-lossless / b-intra / no-splitrd-skip / rdpenalty=0 / psy-rd=2.00 / psy-rdoq=0.00 / no-rd-refine / no-lossless / cbqpoffs=0 / crqpoffs=0 / rc=abr / bitrate=640 / qcomp=0.60 / qpstep=4 / stats-write=0 / stats-read=0 / ipratio=1.40 / pbratio=1.30 / aq-mode=2 / aq-strength=1.00 / cutree / zone-count=0 / no-strict-cbr / qg-size=32 / no-rc-grain / qpmax=69 / qpmin=0 / no-const-vbv / sar=1 / overscan=0 / videoformat=5 / range=0 / colorprim=2 / transfer=2 / colormatrix=2 / chromaloc=0 / display-window=0 / cll=0,0 / min-luma=0 / max-luma=255 / log2-max-poc-lsb=8 / vui-timing-info / vui-hrd-info / slices=1 / no-opt-qp-pps / no-opt-ref-list-length-pps / no-multi-pass-opt-rps / scenecut-bias=0.05 / hist-threshold=0.01 / no-opt-cu-delta-qp / no-aq-motion / no-hdr10 / no-hdr10-opt / no-dhdr10-opt / no-idr-recovery-sei / analysis-reuse-level=0 / analysis-save-reuse-level=0 / analysis-load-reuse-level=0 / scale-factor=0 / refine-intra=0 / refine-inter=0 / refine-mv=1 / refine-ctu-distortion=0 / no-limit-sao / ctu-info=0 / no-lowpass-dct / refine-analysis-type=0 / copy-pic=1 / max-ausize-factor=1.0 / no-dynamic-refine / no-single-sei / no-hevc-aq / no-svt / no-field / qp-adaptation-range=1.00 / no-scenecut-aware-qpconformance-window-offsets / right=0 / bottom=0 / decoder-max-rate=0
  32. Color range : Limited
  33. Menus : 3
  34. Codec configuration box : hvcC
  35. Audio
  36. ID : 2
  37. Format : AAC LC
  38. Format/Info : Advanced Audio Codec Low Complexity
  39. Codec ID : mp4a-40-2
  40. Duration : 1 h 49 min
  41. Duration_LastFrame : -22 ms
  42. Bit rate mode : Constant
  43. Bit rate : 64.0 kb/s
  44. Channel(s) : 1 channel
  45. Channel layout : C
  46. Sampling rate : 44.1 kHz
  47. Frame rate : 43.066 FPS (1024 SPF)
  48. Compression mode : Lossy
  49. Stream size : 50.2 MiB (9%)
  50. Title : Surround
  51. Language : English
  52. Default : Yes
  53. Alternate group : 1
  54. Menus : 3
  55. Menu #1
  56. ID : 3
  57. Codec ID : text
  58. Duration : 1 h 49 min
  59. Language : English
  60. Menu For : 1,2
  61. 00:00:00.000 : Scene 1
  62. 00:07:52.227 : Scene 2
  63. 00:13:18.886 : Scene 3
  64. 00:19:19.914 : Scene 4
  65. 00:25:51.472 : Scene 5
  66. 00:32:47.471 : Scene 6
  67. 00:40:01.654 : Scene 7
  68. 00:46:31.502 : Scene 8
  69. 00:52:28.233 : Scene 9
  70. 01:00:55.073 : Scene 10
  71. 01:08:01.124 : Scene 11
  72. 01:16:19.830 : Scene 12
  73. 01:21:24.927 : Scene 13
  74. 01:28:43.114 : Scene 14
  75. 01:36:23.741 : Scene 15
  76. 01:45:36.377 : Scene 16
  77. Menu #2
  78. 00:00:00.000 : Scene 1
  79. 00:07:52.227 : Scene 2
  80. 00:13:18.886 : Scene 3
  81. 00:19:19.914 : Scene 4
  82. 00:25:51.472 : Scene 5
  83. 00:32:47.471 : Scene 6
  84. 00:40:01.654 : Scene 7
  85. 00:46:31.502 : Scene 8
  86. 00:52:28.233 : Scene 9
  87. 01:00:55.073 : Scene 10
  88. 01:08:01.124 : Scene 11
  89. 01:16:19.830 : Scene 12
  90. 01:21:24.927 : Scene 13
  91. 01:28:43.114 : Scene 14
  92. 01:36:23.741 : Scene 15
  93. 01:45:36.377 : Scene 16
Comments powered by Disqus