1. eneral
  2. Unique ID : 183010153582347191809867959693518655164 (0x89AE7936B6B59F4A8C7765801AED4EBC)
  3. Complete name : D:\G-K-M.2019.720p.HDCAM-1XBET.mkv
  4. Format : Matroska
  5. Format version : Version 4 / Version 2
  6. File size : 2.44 GiB
  7. Duration : 2 h 1 min
  8. Overall bit rate mode : Variable
  9. Overall bit rate : 2 866 kb/s
  10. Encoded date : UTC 2019-05-31 15:33:13
  11. Writing application : TMPGEnc Video Mastering Works 6 Version. 6.2.10.37
  12. Writing library : TMPGEnc Video Mastering Works 6 Version. 6.2.10.37
  13. Video
  14. ID : 2
  15. Format : AVC
  16. Format/Info : Advanced Video Codec
  17. Format profile : [email protected]
  18. Format settings : CABAC / 6 Ref Frames
  19. Format settings, CABAC : Yes
  20. Format settings, RefFrames : 6 frames
  21. Codec ID : V_MPEG4/ISO/AVC
  22. Duration : 2 h 1 min
  23. Bit rate mode : Variable
  24. Bit rate : 2 639 kb/s
  25. Maximum bit rate : 16.4 Mb/s
  26. Width : 1 280 pixels
  27. Height : 536 pixels
  28. Display aspect ratio : 2.40:1
  29. Frame rate mode : Constant
  30. Frame rate : 23.976 (24000/1001) FPS
  31. Standard : Component
  32. Color space : YUV
  33. Chroma subsampling : 4:2:0
  34. Bit depth : 8 bits
  35. Scan type : Progressive
  36. Bits/(Pixel*Frame) : 0.160
  37. Stream size : 2.20 GiB (90%)
  38. Writing library : x264 core 148
  39. Encoding settings : cabac=1 / ref=6 / deblock=1:0:0 / analyse=0x3:0x113 / me=hex / subme=7 / psy=1 / psy_rd=1.00:0.00 / mixed_ref=1 / me_range=16 / chroma_me=1 / trellis=1 / 8x8dct=1 / cqm=1 / deadzone=21,11 / fast_pskip=1 / chroma_qp_offset=-2 / threads=12 / lookahead_threads=2 / sliced_threads=0 / slices=1 / nr=0 / decimate=1 / interlaced=0 / minigop=0 / stitchable=1 / constrained_intra=0 / bframes=3 / b_pyramid=0 / b_adapt=1 / b_bias=0 / direct=1 / weightb=1 / open_gop=1 / weightp=2 / keyint=250 / keyint_min=23 / scenecut=40 / intra_refresh=0 / rc_lookahead=40 / rc=abr / mbtree=1 / bitrate=2639 / ratetol=1.0 / qcomp=0.60 / qpmin=3 / qpmax=69 / qpstep=4 / vbv_maxrate=16400 / vbv_bufsize=16400 / nal_hrd=vbr / filler=0 / ip_ratio=1.40 / aq=1:1.00
  40. Default : Yes
  41. Forced : No
  42. Color range : Limited
  43. Color primaries : BT.709
  44. Transfer characteristics : BT.709
  45. Matrix coefficients : BT.709
  46. Audio
  47. ID : 1
  48. Format : AC-3
  49. Format/Info : Audio Coding 3
  50. Codec ID : A_AC3
  51. Duration : 2 h 1 min
  52. Bit rate mode : Constant
  53. Bit rate : 224 kb/s
  54. Channel(s) : 2 channels
  55. Channel positions : Front: L R
  56. Sampling rate : 48.0 kHz
  57. Frame rate : 31.250 FPS (1536 SPF)
  58. Bit depth : 16 bits
  59. Compression mode : Lossy
  60. Stream size : 195 MiB (8%)
  61. Service kind : Complete Main
  62. Default : Yes
  63. Forced : No
Comments powered by Disqus