1. Release Name..: 12 Monkeys S03 1080p BluRay REMUX AVC TrueHD 5.1-EPSiLON
  2. Video.........: MPEG-4 AVC Video / ~19993 kbps / 1080p / 23.976 fps / 16:9 / High Profile 4.1
  3. Audio.........: English / Dolby TrueHD Audio / 5.1 / 48 kHz / ~3404 kbps / 24-bit
  4. Chapters......: Yes (Numbered)
  5. Subtitles.....: None.
  6. Source........: 12 Monkeys S03 1080p AUS Blu-ray AVC TrueHD 5.1-CsS (thanks to Plazik!)
  7. Notes.........: The h264/AVC stream is a mixture of progressive and interlaced encoding. Enjoy.
  8. General
  9. Unique ID : 170924542625306904082834390565048362605 (0x8096DE96B7DB7438ECA2797A6EAD266D)
  10. Complete name : 12.Monkeys.S03E01.Mother.1080p.BluRay.REMUX.AVC.TrueHD.5.1-EPSiLON.mkv
  11. Format : Matroska
  12. Format version : Version 4 / Version 2
  13. File size : 7.36 GiB
  14. Duration : 43 min 41 s
  15. Overall bit rate mode : Variable
  16. Overall bit rate : 24.1 Mb/s
  17. Encoded date : UTC 2018-07-03 19:23:14
  18. Writing application : mkvmerge v24.0.0 ('Beyond The Pale') 64-bit
  19. Writing library : libebml v1.3.6 + libmatroska v1.4.9
  20. Video
  21. ID : 1
  22. Format : AVC
  23. Format/Info : Advanced Video Codec
  24. Format profile : [email protected]
  25. Format settings : CABAC / 3 Ref Frames
  26. Format settings, CABAC : Yes
  27. Format settings, ReFrames : 3 frames
  28. Codec ID : V_MPEG4/ISO/AVC
  29. Duration : 43 min 41 s
  30. Bit rate mode : Variable
  31. Bit rate : 20.0 Mb/s
  32. Maximum bit rate : 35.0 Mb/s
  33. Width : 1 920 pixels
  34. Height : 1 080 pixels
  35. Display aspect ratio : 16:9
  36. Frame rate mode : Constant
  37. Frame rate : 23.976 (23976/1000) FPS
  38. Original frame rate : 23.976 (24000/1001) FPS
  39. Standard : NTSC
  40. Color space : YUV
  41. Chroma subsampling : 4:2:0
  42. Bit depth : 8 bits
  43. Scan type : Progressive
  44. Bits/(Pixel*Frame) : 0.402
  45. Stream size : 6.10 GiB (83%)
  46. Title : MPEG-4 AVC Video / 19993 kbps / 1080p / 23.976 fps / 16:9 / High Profile 4.1
  47. Language : English
  48. Default : Yes
  49. Forced : No
  50. Color range : Limited
  51. Color primaries : BT.709
  52. Transfer characteristics : BT.709
  53. Matrix coefficients : BT.709
  54. Audio #1
  55. ID : 2
  56. Format : TrueHD
  57. Codec ID : A_TRUEHD
  58. Duration : 43 min 40 s
  59. Bit rate mode : Variable
  60. Bit rate : 3 405 kb/s
  61. Maximum bit rate : 4 827 kb/s
  62. Channel(s) : 6 channels
  63. Channel positions : Front: L C R, Side: L R, LFE
  64. Sampling rate : 48.0 kHz
  65. Frame rate : 1 200.000 FPS (40 SPF)
  66. Compression mode : Lossless
  67. Stream size : 1.04 GiB (14%)
  68. Title : Dolby TrueHD Audio / 5.1 / 48 kHz / 3404 kbps / 24-bit
  69. Language : English
  70. Default : Yes
  71. Forced : No
  72. Audio #2
  73. ID : 3
  74. Format : AC-3
  75. Format/Info : Audio Coding 3
  76. Codec ID : A_AC3
  77. Duration : 43 min 40 s
  78. Bit rate mode : Constant
  79. Bit rate : 640 kb/s
  80. Channel(s) : 6 channels
  81. Channel positions : Front: L C R, Side: L R, LFE
  82. Sampling rate : 48.0 kHz
  83. Frame rate : 31.250 FPS (1536 SPF)
  84. Bit depth : 16 bits
  85. Compression mode : Lossy
  86. Stream size : 200 MiB (3%)
  87. Title : Compatibility Track / Dolby Digital Audio / 5.1-EX / 48 kHz / 640 kbps
  88. Language : English
  89. Service kind : Complete Main
  90. Default : No
  91. Forced : No
  92. Menu
  93. 00:00:00.000 : en:Chapter 1
  94. 00:09:02.083 : en:Chapter 2
  95. 00:14:28.951 : en:Chapter 3
  96. 00:21:06.056 : en:Chapter 4
  97. 00:29:28.141 : en:Chapter 5
  98. 00:35:50.398 : en:Chapter 6
  99. 00:43:19.138 : en:Chapter 7
Comments powered by Disqus