1. General
  2. Complete name : C:\Users\ddddrelease\Downloads\How.It.Ends.2021.1080p.WEBRip.1400MB.DD5.1.x264-GalaxyRG.mkv st=3ob1O8Pq0xaydCYsJhYL1A&e=1626936164.mp4 (convert-video-online.com)(1).mp4
  3. Format : MPEG-4
  4. Format profile : Base Media
  5. Codec ID : isom (isom/iso2/avc1/mp41)
  6. File size : 1.31 GiB
  7. Duration : 1 h 23 min
  8. Overall bit rate : 2 250 kb/s
  9. Movie name : GalaxyRG - How.It.Ends.2021.1080p.WEBRip.1400MB.DD5.1.x264-GalaxyRG
  10. Writing application : Lavf58.45.100
  11. Comment : GalaxyRG - How.It.Ends.2021.1080p.WEBRip.1400MB.DD5.1.x264-GalaxyRG
  12. Video
  13. ID : 1
  14. Format : AVC
  15. Format/Info : Advanced Video Codec
  16. Format profile : [email protected]
  17. Format settings : CABAC / 4 Ref Frames
  18. Format settings, CABAC : Yes
  19. Format settings, Reference frames : 4 frames
  20. Codec ID : avc1
  21. Codec ID/Info : Advanced Video Coding
  22. Duration : 1 h 23 min
  23. Bit rate : 2 259 kb/s
  24. Width : 1 920 pixels
  25. Height : 1 078 pixels
  26. Display aspect ratio : 16:9
  27. Frame rate mode : Constant
  28. Frame rate : 25.000 FPS
  29. Color space : YUV
  30. Chroma subsampling : 4:2:0
  31. Bit depth : 8 bits
  32. Scan type : Progressive
  33. Bits/(Pixel*Frame) : 0.044
  34. Stream size : 1.27 GiB (98%)
  35. Title : GalaxyRG - How.It.Ends.2021.1080p.WEBRip.1400MB.DD5.1.x264-GalaxyRG
  36. Writing library : x264 core 155 r2917 0a84d98
  37. Encoding settings : cabac=1 / ref=1 / deblock=1:0:0 / analyse=0x3:0x3 / me=dia / subme=1 / psy=1 / psy_rd=1.00:0.00 / mixed_ref=0 / me_range=16 / chroma_me=1 / trellis=0 / 8x8dct=1 / cqm=0 / deadzone=21,11 / fast_pskip=1 / chroma_qp_offset=0 / threads=24 / lookahead_threads=4 / sliced_threads=0 / nr=0 / decimate=1 / interlaced=0 / bluray_compat=0 / constrained_intra=0 / bframes=3 / b_pyramid=2 / b_adapt=1 / b_bias=0 / direct=1 / weightb=1 / open_gop=0 / weightp=1 / keyint=250 / keyint_min=25 / scenecut=40 / intra_refresh=0 / rc=abr / mbtree=0 / bitrate=2259 / ratetol=1.0 / qcomp=0.60 / qpmin=0 / qpmax=69 / qpstep=4 / ip_ratio=1.40 / pb_ratio=1.30 / aq=1:1.00
  38. Codec configuration box : avcC
  39. Audio
  40. ID : 2
  41. Format : AAC LC
  42. Format/Info : Advanced Audio Codec Low Complexity
  43. Codec ID : mp4a-40-2
  44. Duration : 1 h 23 min
  45. Duration_LastFrame : -17 ms
  46. Bit rate mode : Constant
  47. Bit rate : 48.0 kb/s
  48. Channel(s) : 1 channel
  49. Channel layout : C
  50. Sampling rate : 44.1 kHz
  51. Frame rate : 43.066 FPS (1024 SPF)
  52. Compression mode : Lossy
  53. Stream size : 28.5 MiB (2%)
  54. Title : GalaxyRG - How.It.Ends.2021.1080p.WEBRip.1400MB.DD5.1.x264-GalaxyRG
  55. Language : English
  56. Default : Yes
  57. Alternate group : 1
Comments powered by Disqus