1. General
  2. Unique ID : 219278902112386284862272415676501429177 (0xA4F7949375BF14CE86DD18E9AB558BB9)
  3. Complete name : unfired-clover_paradox-x265.mkv
  4. Format : Matroska
  5. Format version : Version 4
  6. File size : 2.95 GiB
  7. Duration : 1 h 41 min
  8. Overall bit rate : 4 147 kb/s
  9. Encoded date : UTC 2019-02-02 15:00:56
  10. Writing application : mkvmerge v9.5.0 ('Quiet Fire') 64bit
  11. Writing library : libebml v1.3.4 + libmatroska v1.4.5
  12. Video
  13. ID : 1
  14. Format : HEVC
  15. Format/Info : High Efficiency Video Coding
  16. Format profile : [email protected]@Main
  17. Codec ID : V_MPEGH/ISO/HEVC
  18. Duration : 1 h 41 min
  19. Bit rate : 2 829 kb/s
  20. Width : 1 920 pixels
  21. Height : 800 pixels
  22. Display aspect ratio : 2.40:1
  23. Frame rate mode : Constant
  24. Frame rate : 23.976 (24000/1001) FPS
  25. Color space : YUV
  26. Chroma subsampling : 4:2:0
  27. Bit depth : 8 bits
  28. Bits/(Pixel*Frame) : 0.077
  29. Stream size : 2.01 GiB (68%)
  30. Writing library : x265 2.9+1-169e76b6bbcc:[Windows][GCC 8.2.0][64 bit] 8bit+10bit+12bit
  31. Encoding settings : cpuid=1111039 / frame-threads=16 / numa-pools=16 / wpp / no-pmode / no-pme / no-psnr / no-ssim / log-level=2 / input-csp=1 / input-res=1920x800 / interlace=0 / total-frames=146468 / level-idc=0 / high-tier=1 / uhd-bd=0 / ref=4 / no-allow-non-conformance / no-repeat-headers / annexb / no-aud / no-hrd / info / hash=0 / no-temporal-layers / open-gop / min-keyint=23 / keyint=250 / gop-lookahead=0 / bframes=4 / b-adapt=2 / b-pyramid / bframe-bias=0 / rc-lookahead=25 / lookahead-slices=4 / scenecut=40 / radl=0 / no-intra-refresh / ctu=64 / min-cu-size=8 / rect / no-amp / max-tu-size=32 / tu-inter-depth=1 / tu-intra-depth=1 / limit-tu=0 / rdoq-level=2 / dynamic-rd=0.00 / no-ssim-rd / signhide / no-tskip / nr-intra=0 / nr-inter=0 / no-constrained-intra / strong-intra-smoothing / max-merge=3 / limit-refs=3 / limit-modes / me=3 / subme=3 / merange=57 / temporal-mvp / weightp / no-weightb / no-analyze-src-pics / deblock=0:0 / sao / no-sao-non-deblock / rd=4 / no-early-skip / rskip / no-fast-intra / no-tskip-fast / no-cu-lossless / no-b-intra / no-splitrd-skip / rdpenalty=0 / psy-rd=2.00 / psy-rdoq=1.00 / no-rd-refine / no-lossless / cbqpoffs=0 / crqpoffs=0 / rc=crf / crf=19.9 / qcomp=0.60 / qpstep=4 / stats-write=0 / stats-read=0 / ipratio=1.40 / pbratio=1.30 / aq-mode=1 / aq-strength=1.00 / cutree / zone-count=0 / no-strict-cbr / qg-size=32 / no-rc-grain / qpmax=69 / qpmin=0 / no-const-vbv / sar=1 / overscan=0 / videoformat=5 / range=0 / colorprim=2 / transfer=2 / colormatrix=2 / chromaloc=0 / display-window=0 / max-cll=0,0 / min-luma=0 / max-luma=255 / log2-max-poc-lsb=8 / vui-timing-info / vui-hrd-info / slices=1 / no-opt-qp-pps / no-opt-ref-list-length-pps / no-multi-pass-opt-rps / scenecut-bias=0.05 / no-opt-cu-delta-qp / no-aq-motion / no-hdr / no-hdr-opt / no-dhdr10-opt / no-idr-recovery-sei / analysis-reuse-level=5 / scale-factor=0 / refine-intra=0 / refine-inter=0 / refine-mv=0 / no-limit-sao / ctu-info=0 / no-lowpass-dct / refine-mv-type=0 / copy-pic=1 / max-ausize-factor=1.0 / no-dynamic-refine / no-single-sei
  32. Default : Yes
  33. Forced : No
  34. Audio #1
  35. ID : 2
  36. Format : AC-3
  37. Format/Info : Audio Coding 3
  38. Commercial name : Dolby Digital
  39. Codec ID : A_AC3
  40. Duration : 1 h 41 min
  41. Bit rate mode : Constant
  42. Bit rate : 640 kb/s
  43. Channel(s) : 6 channels
  44. Channel layout : L R C LFE Ls Rs
  45. Sampling rate : 48.0 kHz
  46. Frame rate : 31.250 FPS (1536 SPF)
  47. Bit depth : 16 bits
  48. Compression mode : Lossy
  49. Stream size : 466 MiB (15%)
  50. Language : German
  51. Service kind : Complete Main
  52. Default : Yes
  53. Forced : No
  54. Audio #2
  55. ID : 3
  56. Format : AC-3
  57. Format/Info : Audio Coding 3
  58. Commercial name : Dolby Digital
  59. Codec ID : A_AC3
  60. Duration : 1 h 41 min
  61. Bit rate mode : Constant
  62. Bit rate : 640 kb/s
  63. Channel(s) : 6 channels
  64. Channel layout : L R C LFE Ls Rs
  65. Sampling rate : 48.0 kHz
  66. Frame rate : 31.250 FPS (1536 SPF)
  67. Bit depth : 16 bits
  68. Compression mode : Lossy
  69. Stream size : 466 MiB (15%)
  70. Language : English
  71. Service kind : Complete Main
  72. Default : No
  73. Forced : No
  74. Text #1
  75. ID : 4
  76. Format : PGS
  77. Muxing mode : zlib
  78. Codec ID : S_HDMV/PGS
  79. Codec ID/Info : Picture based subtitle format used on BDs/HD-DVDs
  80. Duration : 1 h 41 min
  81. Bit rate : 17.6 kb/s
  82. Count of elements : 2259
  83. Stream size : 12.8 MiB (0%)
  84. Title : complete
  85. Language : German
  86. Default : No
  87. Forced : No
  88. Text #2
  89. ID : 5
  90. Format : UTF-8
  91. Codec ID : S_TEXT/UTF8
  92. Codec ID/Info : UTF-8 Plain Text
  93. Duration : 1 h 37 min
  94. Bit rate : 3 b/s
  95. Count of elements : 102
  96. Stream size : 2.84 KiB (0%)
  97. Title : forced
  98. Language : German
  99. Default : Yes
  100. Forced : Yes
  101. Text #3
  102. ID : 6
  103. Format : PGS
  104. Muxing mode : zlib
  105. Codec ID : S_HDMV/PGS
  106. Codec ID/Info : Picture based subtitle format used on BDs/HD-DVDs
  107. Duration : 1 h 35 min
  108. Bit rate : 19.1 kb/s
  109. Count of elements : 2389
  110. Stream size : 13.1 MiB (0%)
  111. Title : complete
  112. Language : English
  113. Default : No
  114. Forced : No
  115. Menu
  116. 00:00:00.000 : en:00:00:00.000
  117. 00:07:12.974 : en:00:07:12.974
  118. 00:11:27.562 : en:00:11:27.562
  119. 00:16:43.252 : en:00:16:43.252
  120. 00:22:24.426 : en:00:22:24.426
  121. 00:30:01.842 : en:00:30:01.842
  122. 00:34:28.650 : en:00:34:28.650
  123. 00:38:57.919 : en:00:38:57.919
  124. 00:45:57.004 : en:00:45:57.004
  125. 00:50:46.919 : en:00:50:46.919
  126. 00:55:23.779 : en:00:55:23.779
  127. 01:04:00.503 : en:01:04:00.503
  128. 01:10:28.433 : en:01:10:28.433
  129. 01:19:29.974 : en:01:19:29.974
  130. 01:25:49.978 : en:01:25:49.978
  131. 01:32:21.161 : en:01:32:21.161
  132. 01:36:26.114 : en:01:36:26.114
Comments powered by Disqus