1. General
  2. Complete name : C:\Users\ddddrelease\Desktop\Tig.Notaro.Drawn.2021.720x480p.proper.h264.webrip.mp4\Tig.Notaro.Drawn.2021.720x480p.proper.h264.webrip.mp4.mp4
  3. Format : MPEG-4
  4. Format profile : Base Media / Version 2
  5. Codec ID : mp42 (mp42)
  6. File size : 284 MiB
  7. Duration : 52 min 36 s
  8. Overall bit rate : 756 kb/s
  9. Movie name : encoded and uploaded by ddddrelease rlsbb.ru
  10. Performer : encoded and uploaded by ddddrelease rlsbb.ru
  11. Composer : encoded and uploaded by ddddrelease rlsbb.ru
  12. Genre :
  13. ContentType : Short Film
  14. Description : encoded and uploaded by ddddrelease rlsbb.ru
  15. Encoded date : UTC 2021-07-25 14:20:00
  16. Tagged date : UTC 2021-07-25 14:25:03
  17. Writing application : encoded and uploaded by ddddrelease rlsbb.ru
  18. Comment : ddddrelease trusted uploader since 2008 from rlslog and rlsbb fame / / / greetings to ario mkivtony caroline and pumpkin pie
  19. LongDescription : fuck off do your own encodes leechers / / encoded by proper software / / remember to say thanks in rlsbb comments!!
  20. Video
  21. ID : 1
  22. Format : AVC
  23. Format/Info : Advanced Video Codec
  24. Format profile : [email protected]
  25. Format settings : CABAC / 2 Ref Frames
  26. Format settings, CABAC : Yes
  27. Format settings, Reference frames : 2 frames
  28. Muxing mode : Container [email protected]
  29. Codec ID : avc1
  30. Codec ID/Info : Advanced Video Coding
  31. Duration : 52 min 36 s
  32. Source duration : 52 min 36 s
  33. Bit rate : 494 kb/s
  34. Width : 720 pixels
  35. Height : 480 pixels
  36. Display aspect ratio : 3:2
  37. Frame rate mode : Constant
  38. Frame rate : 23.976 (24000/1001) FPS
  39. Color space : YUV
  40. Chroma subsampling : 4:2:0
  41. Bit depth : 8 bits
  42. Scan type : Progressive
  43. Bits/(Pixel*Frame) : 0.060
  44. Stream size : 186 MiB (65%)
  45. Source stream size : 186 MiB (65%)
  46. Codec configuration box : avcC
  47. Audio
  48. ID : 2
  49. Format : AAC LC
  50. Format/Info : Advanced Audio Codec Low Complexity
  51. Codec ID : mp4a-40-2
  52. Duration : 52 min 36 s
  53. Bit rate mode : Constant
  54. Bit rate : 256 kb/s
  55. Channel(s) : 2 channels
  56. Channel layout : L R
  57. Sampling rate : 48.0 kHz
  58. Frame rate : 46.875 FPS (1024 SPF)
  59. Compression mode : Lossy
  60. Stream size : 96.3 MiB (34%)
  61. Title : Stereo
  62. Language : English
  63. Default : Yes
  64. Alternate group : 1
Comments powered by Disqus