1. General
  2. Unique ID : 177329299155906399746814703082758578983 (0x8568617744F5BFC8B0F0676DEC05A327)
  3. Complete name : The.Knight.Before.Christmas.2019.1080p.NF.WEB-DL.DDP5.1.Atmos.H264-CMRG/The.Knight.Before.Christmas.2019.1080p.NF.WEB-DL.DDP5.1.Atmos.H264-CMRG.mkv
  4. Format : Matroska
  5. Format version : Version 4
  6. File size : 5.32 GiB
  7. Duration : 1 h 32 min
  8. Overall bit rate mode : Variable
  9. Overall bit rate : 8 217 kb/s
  10. Movie name : CMRG
  11. Encoded date : UTC 2019-11-21 08:02:58
  12. Writing application : mkvmerge v11.0.0 ('Alive') 64bit
  13. Writing library : libebml v1.3.4 + libmatroska v1.4.5
  14. Video
  15. ID : 1
  16. Format : AVC
  17. Format/Info : Advanced Video Codec
  18. Format profile : [email protected]
  19. Format settings : CABAC / 3 Ref Frames
  20. Format settings, CABAC : Yes
  21. Format settings, Reference frames : 3 frames
  22. Codec ID : V_MPEG4/ISO/AVC
  23. Duration : 1 h 32 min
  24. Bit rate mode : Variable
  25. Bit rate : 7 500 kb/s
  26. Maximum bit rate : 11.2 Mb/s
  27. Width : 1 920 pixels
  28. Height : 1 080 pixels
  29. Display aspect ratio : 16:9
  30. Frame rate mode : Constant
  31. Frame rate : 24.000 FPS
  32. Color space : YUV
  33. Chroma subsampling : 4:2:0
  34. Bit depth : 8 bits
  35. Scan type : Progressive
  36. Bits/(Pixel*Frame) : 0.151
  37. Stream size : 4.82 GiB (91%)
  38. Writing library : x264 core 148 r2715 7e75228
  39. Encoding settings : cabac=1 / ref=3 / deblock=1:0:0 / analyse=0x1:0x111 / me=umh / subme=10 / psy=1 / psy_rd=1.00:0.00 / mixed_ref=1 / me_range=24 / chroma_me=1 / trellis=2 / 8x8dct=0 / cqm=0 / deadzone=21,11 / fast_pskip=1 / chroma_qp_offset=-2 / threads=8 / lookahead_threads=1 / sliced_threads=0 / nr=0 / decimate=1 / interlaced=0 / bluray_compat=0 / stitchable=1 / constrained_intra=0 / bframes=2 / b_pyramid=0 / b_adapt=2 / b_bias=0 / direct=3 / weightb=1 / open_gop=0 / weightp=2 / keyint=250 / keyint_min=24 / scenecut=0 / intra_refresh=0 / rc_lookahead=48 / rc=2pass / mbtree=1 / bitrate=7500 / ratetol=1.0 / qcomp=0.50 / qpmin=6 / qpmax=51 / qpstep=4 / cplxblur=20.0 / qblur=0.5 / vbv_maxrate=11250 / vbv_bufsize=15000 / nal_hrd=vbr / filler=0 / ip_ratio=1.40 / aq=1:1.00
  40. Default : Yes
  41. Forced : No
  42. Audio
  43. ID : 2
  44. Format : E-AC-3 JOC
  45. Format/Info : Enhanced AC-3 with Joint Object Coding
  46. Commercial name : Dolby Digital Plus with Dolby Atmos
  47. Codec ID : A_EAC3
  48. Duration : 1 h 32 min
  49. Bit rate mode : Constant
  50. Bit rate : 768 kb/s
  51. Channel(s) : 6 channels
  52. Channel layout : L R C LFE Ls Rs
  53. Sampling rate : 48.0 kHz
  54. Frame rate : 31.250 FPS (1536 SPF)
  55. Compression mode : Lossy
  56. Stream size : 509 MiB (9%)
  57. Title : English
  58. Language : English
  59. Service kind : Complete Main
  60. Default : Yes
  61. Forced : No
  62. Complexity index : 16
  63. Number of dynamic objects : 15
  64. Bed channel count : 1 channel
  65. Bed channel configuration : LFE
  66. Text #1
  67. ID : 3
  68. Format : UTF-8
  69. Codec ID : S_TEXT/UTF8
  70. Codec ID/Info : UTF-8 Plain Text
  71. Duration : 1 h 27 min
  72. Bit rate : 71 b/s
  73. Count of elements : 1440
  74. Stream size : 45.6 KiB (0%)
  75. Title : English
  76. Language : English
  77. Default : Yes
  78. Forced : No
  79. Text #2
  80. ID : 4
  81. Format : UTF-8
  82. Codec ID : S_TEXT/UTF8
  83. Codec ID/Info : UTF-8 Plain Text
  84. Duration : 1 h 31 min
  85. Bit rate : 58 b/s
  86. Count of elements : 1309
  87. Stream size : 38.8 KiB (0%)
  88. Title : Castilian
  89. Language : Spanish
  90. Default : No
  91. Forced : No
  92. Text #3
  93. ID : 5
  94. Format : UTF-8
  95. Codec ID : S_TEXT/UTF8
  96. Codec ID/Info : UTF-8 Plain Text
  97. Duration : 1 h 27 min
  98. Bit rate : 61 b/s
  99. Count of elements : 1354
  100. Stream size : 39.8 KiB (0%)
  101. Title : Spanish
  102. Language : Spanish
  103. Default : No
  104. Forced : No
  105. Text #4
  106. ID : 6
  107. Format : UTF-8
  108. Codec ID : S_TEXT/UTF8
  109. Codec ID/Info : UTF-8 Plain Text
  110. Duration : 1 h 27 min
  111. Bit rate : 60 b/s
  112. Count of elements : 1291
  113. Stream size : 38.9 KiB (0%)
  114. Title : French
  115. Language : French
  116. Default : No
  117. Forced : No
  118. Text #5
  119. ID : 7
  120. Format : UTF-8
  121. Codec ID : S_TEXT/UTF8
  122. Codec ID/Info : UTF-8 Plain Text
  123. Duration : 1 h 31 min
  124. Bit rate : 62 b/s
  125. Count of elements : 1313
  126. Stream size : 41.5 KiB (0%)
  127. Title : German
  128. Language : German
  129. Default : No
  130. Forced : No
  131. Text #6
  132. ID : 8
  133. Format : UTF-8
  134. Codec ID : S_TEXT/UTF8
  135. Codec ID/Info : UTF-8 Plain Text
  136. Duration : 1 h 31 min
  137. Bit rate : 62 b/s
  138. Count of elements : 1399
  139. Stream size : 41.5 KiB (0%)
  140. Title : Italian
  141. Language : Italian
  142. Default : No
  143. Forced : No
  144. Text #7
  145. ID : 9
  146. Format : UTF-8
  147. Codec ID : S_TEXT/UTF8
  148. Codec ID/Info : UTF-8 Plain Text
  149. Duration : 1 h 27 min
  150. Bit rate : 64 b/s
  151. Count of elements : 1299
  152. Stream size : 41.6 KiB (0%)
  153. Title : Portuguese
  154. Language : Portuguese
  155. Default : No
  156. Forced : No
  157. Text #8
  158. ID : 10
  159. Format : UTF-8
  160. Codec ID : S_TEXT/UTF8
  161. Codec ID/Info : UTF-8 Plain Text
  162. Duration : 1 h 31 min
  163. Bit rate : 63 b/s
  164. Count of elements : 1320
  165. Stream size : 42.1 KiB (0%)
  166. Title : Brazilian Portuguese
  167. Language : Portuguese
  168. Default : No
  169. Forced : No
  170. Text #9
  171. ID : 11
  172. Format : UTF-8
  173. Codec ID : S_TEXT/UTF8
  174. Codec ID/Info : UTF-8 Plain Text
  175. Duration : 1 h 31 min
  176. Bit rate : 55 b/s
  177. Count of elements : 1325
  178. Stream size : 37.3 KiB (0%)
  179. Title : Polish
  180. Language : Polish
  181. Default : No
  182. Forced : No
  183. Text #10
  184. ID : 12
  185. Format : UTF-8
  186. Codec ID : S_TEXT/UTF8
  187. Codec ID/Info : UTF-8 Plain Text
  188. Duration : 1 h 27 min
  189. Bit rate : 67 b/s
  190. Count of elements : 1344
  191. Stream size : 43.5 KiB (0%)
  192. Title : Turkish
  193. Language : Turkish
  194. Default : No
  195. Forced : No
  196. Text #11
  197. ID : 13
  198. Format : UTF-8
  199. Codec ID : S_TEXT/UTF8
  200. Codec ID/Info : UTF-8 Plain Text
  201. Duration : 1 h 27 min
  202. Bit rate : 61 b/s
  203. Count of elements : 1215
  204. Stream size : 39.4 KiB (0%)
  205. Title : Swedish
  206. Language : Swedish
  207. Default : No
  208. Forced : No
  209. Text #12
  210. ID : 14
  211. Format : UTF-8
  212. Codec ID : S_TEXT/UTF8
  213. Codec ID/Info : UTF-8 Plain Text
  214. Duration : 1 h 31 min
  215. Bit rate : 54 b/s
  216. Count of elements : 1218
  217. Stream size : 36.7 KiB (0%)
  218. Title : Danish
  219. Language : Danish
  220. Default : No
  221. Forced : No
  222. Text #13
  223. ID : 15
  224. Format : UTF-8
  225. Codec ID : S_TEXT/UTF8
  226. Codec ID/Info : UTF-8 Plain Text
  227. Duration : 1 h 27 min
  228. Bit rate : 59 b/s
  229. Count of elements : 1221
  230. Stream size : 38.2 KiB (0%)
  231. Title : Finnish
  232. Language : Finnish
  233. Default : No
  234. Forced : No
  235. Text #14
  236. ID : 16
  237. Format : UTF-8
  238. Codec ID : S_TEXT/UTF8
  239. Codec ID/Info : UTF-8 Plain Text
  240. Duration : 1 h 27 min
  241. Bit rate : 61 b/s
  242. Count of elements : 1290
  243. Stream size : 39.8 KiB (0%)
  244. Title : Dutch
  245. Language : Dutch
  246. Default : No
  247. Forced : No
  248. Text #15
  249. ID : 17
  250. Format : UTF-8
  251. Codec ID : S_TEXT/UTF8
  252. Codec ID/Info : UTF-8 Plain Text
  253. Duration : 1 h 31 min
  254. Bit rate : 60 b/s
  255. Count of elements : 1171
  256. Stream size : 40.7 KiB (0%)
  257. Title : Norwegian
  258. Language : Norwegian
  259. Default : No
  260. Forced : No
  261. Text #16
  262. ID : 18
  263. Format : UTF-8
  264. Codec ID : S_TEXT/UTF8
  265. Codec ID/Info : UTF-8 Plain Text
  266. Duration : 1 h 31 min
  267. Bit rate : 105 b/s
  268. Count of elements : 1370
  269. Stream size : 70.3 KiB (0%)
  270. Title : Russian
  271. Language : Russian
  272. Default : No
  273. Forced : No
  274. Text #17
  275. ID : 19
  276. Format : UTF-8
  277. Codec ID : S_TEXT/UTF8
  278. Codec ID/Info : UTF-8 Plain Text
  279. Duration : 1 h 27 min
  280. Bit rate : 106 b/s
  281. Count of elements : 1332
  282. Stream size : 68.3 KiB (0%)
  283. Title : Greek
  284. Language : Greek
  285. Default : No
  286. Forced : No
  287. Text #18
  288. ID : 20
  289. Format : UTF-8
  290. Codec ID : S_TEXT/UTF8
  291. Codec ID/Info : UTF-8 Plain Text
  292. Duration : 1 h 27 min
  293. Bit rate : 102 b/s
  294. Count of elements : 1353
  295. Stream size : 65.6 KiB (0%)
  296. Title : Hebrew
  297. Language : Hebrew
  298. Default : No
  299. Forced : No
  300. Text #19
  301. ID : 21
  302. Format : UTF-8
  303. Codec ID : S_TEXT/UTF8
  304. Codec ID/Info : UTF-8 Plain Text
  305. Duration : 1 h 27 min
  306. Bit rate : 112 b/s
  307. Count of elements : 1396
  308. Stream size : 72.5 KiB (0%)
  309. Title : Arabic
  310. Language : Arabic
  311. Default : No
  312. Forced : No
  313. Text #20
  314. ID : 22
  315. Format : UTF-8
  316. Codec ID : S_TEXT/UTF8
  317. Codec ID/Info : UTF-8 Plain Text
  318. Duration : 1 h 27 min
  319. Bit rate : 69 b/s
  320. Count of elements : 1337
  321. Stream size : 44.8 KiB (0%)
  322. Title : Romanian
  323. Language : Romanian
  324. Default : No
  325. Forced : No
  326. Text #21
  327. ID : 23
  328. Format : UTF-8
  329. Codec ID : S_TEXT/UTF8
  330. Codec ID/Info : UTF-8 Plain Text
  331. Duration : 1 h 31 min
  332. Bit rate : 62 b/s
  333. Count of elements : 1357
  334. Stream size : 41.8 KiB (0%)
  335. Title : Czech
  336. Language : Czech
  337. Default : No
  338. Forced : No
  339. Text #22
  340. ID : 24
  341. Format : UTF-8
  342. Codec ID : S_TEXT/UTF8
  343. Codec ID/Info : UTF-8 Plain Text
  344. Duration : 1 h 27 min
  345. Bit rate : 188 b/s
  346. Count of elements : 1358
  347. Stream size : 121 KiB (0%)
  348. Title : Hindi
  349. Language : Hindi
  350. Default : No
  351. Forced : No
  352. Text #23
  353. ID : 25
  354. Format : UTF-8
  355. Codec ID : S_TEXT/UTF8
  356. Codec ID/Info : UTF-8 Plain Text
  357. Duration : 1 h 27 min
  358. Bit rate : 61 b/s
  359. Count of elements : 1357
  360. Stream size : 39.8 KiB (0%)
  361. Title : Indonesian
  362. Language : Indonesian
  363. Default : No
  364. Forced : No
  365. Text #24
  366. ID : 26
  367. Format : UTF-8
  368. Codec ID : S_TEXT/UTF8
  369. Codec ID/Info : UTF-8 Plain Text
  370. Duration : 1 h 27 min
  371. Bit rate : 95 b/s
  372. Count of elements : 1359
  373. Stream size : 61.3 KiB (0%)
  374. Title : Vietnamese
  375. Language : Vietnamese
  376. Default : No
  377. Forced : No
  378. Text #25
  379. ID : 27
  380. Format : UTF-8
  381. Codec ID : S_TEXT/UTF8
  382. Codec ID/Info : UTF-8 Plain Text
  383. Duration : 1 h 31 min
  384. Bit rate : 156 b/s
  385. Count of elements : 1369
  386. Stream size : 105 KiB (0%)
  387. Title : Thai
  388. Language : Thai
  389. Default : No
  390. Forced : No
  391. Text #26
  392. ID : 28
  393. Format : UTF-8
  394. Codec ID : S_TEXT/UTF8
  395. Codec ID/Info : UTF-8 Plain Text
  396. Duration : 1 h 31 min
  397. Bit rate : 85 b/s
  398. Count of elements : 1457
  399. Stream size : 57.2 KiB (0%)
  400. Title : Korean
  401. Language : Korean
  402. Default : No
  403. Forced : No
  404. Text #27
  405. ID : 29
  406. Format : UTF-8
  407. Codec ID : S_TEXT/UTF8
  408. Codec ID/Info : UTF-8 Plain Text
  409. Duration : 1 h 31 min
  410. Bit rate : 64 b/s
  411. Count of elements : 1362
  412. Stream size : 43.1 KiB (0%)
  413. Title : Chinese (Simplified)
  414. Language : Chinese
  415. Default : No
  416. Forced : No
  417. Text #28
  418. ID : 30
  419. Format : UTF-8
  420. Codec ID : S_TEXT/UTF8
  421. Codec ID/Info : UTF-8 Plain Text
  422. Duration : 1 h 31 min
  423. Bit rate : 59 b/s
  424. Count of elements : 1359
  425. Stream size : 40.1 KiB (0%)
  426. Title : Chinese (Traditional)
  427. Language : Chinese
  428. Default : No
  429. Forced : No
  430. Text #29
  431. ID : 31
  432. Format : UTF-8
  433. Codec ID : S_TEXT/UTF8
  434. Codec ID/Info : UTF-8 Plain Text
  435. Duration : 1 h 27 min
  436. Bit rate : 58 b/s
  437. Count of elements : 1276
  438. Stream size : 37.8 KiB (0%)
  439. Title : Japanese
  440. Language : Japanese
  441. Default : No
  442. Forced : No
Comments powered by Disqus