1. Complete name : unfired-collide-x265.mkv
  2. Format : Matroska
  3. Format version : Version 4 / Version 2
  4. File size : 4.49 GiB
  5. Duration : 1 h 39 min
  6. Overall bit rate : 6 472 kb/s
  7. Encoded date : UTC 2017-02-28 12:06:53
  8. Writing application : mkvmerge v9.7.1 ('Pandemonium') 64bit
  9. Writing library : libebml v1.3.4 + libmatroska v1.4.5
  10. Video
  11. ID : 1
  12. Format : HEVC
  13. Format/Info : High Efficiency Video Coding
  14. Format profile : [email protected]@Main
  15. Codec ID : V_MPEGH/ISO/HEVC
  16. Duration : 1 h 39 min
  17. Bit rate : 3 451 kb/s
  18. Width : 1 920 pixels
  19. Height : 800 pixels
  20. Display aspect ratio : 2.40:1
  21. Frame rate mode : Constant
  22. Frame rate : 24.000 FPS
  23. Color space : YUV
  24. Chroma subsampling : 4:2:0
  25. Bit depth : 8 bits
  26. Bits/(Pixel*Frame) : 0.094
  27. Stream size : 2.40 GiB (53%)
  28. Writing library : x265 2.2+2-998d4520d1cf:[Windows][GCC 6.2.0][64 bit] 8bit+10bit+12bit
  29. Encoding settings : cpuid=1050111 / frame-threads=5 / numa-pools=12,12 / wpp / no-pmode / no-pme / no-psnr / no-ssim / log-level=2 / input-csp=1 / input-res=1920x800 / interlace=0 / total-frames=143094 / level-idc=0 / high-tier=1 / uhd-bd=0 / ref=4 / no-allow-non-conformance / no-repeat-headers / annexb / no-aud / no-hrd / info / hash=0 / no-temporal-layers / open-gop / min-keyint=24 / keyint=250 / bframes=4 / b-adapt=2 / b-pyramid / bframe-bias=0 / rc-lookahead=25 / lookahead-slices=4 / scenecut=40 / no-intra-refresh / ctu=64 / min-cu-size=8 / rect / no-amp / max-tu-size=32 / tu-inter-depth=1 / tu-intra-depth=1 / limit-tu=0 / rdoq-level=2 / signhide / no-tskip / nr-intra=0 / nr-inter=0 / no-constrained-intra / strong-intra-smoothing / max-merge=3 / limit-refs=3 / limit-modes / me=3 / subme=3 / merange=57 / temporal-mvp / weightp / no-weightb / no-analyze-src-pics / deblock=0:0 / sao / no-sao-non-deblock / rd=4 / no-early-skip / rskip / no-fast-intra / no-tskip-fast / no-cu-lossless / no-b-intra / rdpenalty=0 / psy-rd=2.00 / psy-rdoq=1.00 / no-rd-refine / analysis-mode=0 / no-lossless / cbqpoffs=0 / crqpoffs=0 / rc=crf / crf=19.0 / qcomp=0.60 / qpstep=4 / stats-write=0 / stats-read=0 / ipratio=1.40 / pbratio=1.30 / aq-mode=1 / aq-strength=1.00 / cutree / zone-count=0 / no-strict-cbr / qg-size=32 / no-rc-grain / qpmax=69 / qpmin=0 / sar=1 / overscan=0 / videoformat=5 / range=0 / colorprim=2 / transfer=2 / colormatrix=2 / chromaloc=0 / display-window=0 / max-cll=0,0 / min-luma=0 / max-luma=255 / log2-max-poc-lsb=8 / vui-timing-info / vui-hrd-info / slices=1 / opt-qp-pps / opt-ref-list-length-pps / no-multi-pass-opt-rps / scenecut-bias=0.05
  30. Language : German
  31. Default : Yes
  32. Forced : No
  33. Audio #1
  34. ID : 2
  35. Format : DTS
  36. Format/Info : Digital Theater Systems
  37. Mode : 16
  38. Format settings, Endianness : Big
  39. Codec ID : A_DTS
  40. Duration : 1 h 39 min
  41. Bit rate mode : Constant
  42. Bit rate : 1 509 kb/s
  43. Channel(s) : 6 channels
  44. Channel positions : Front: L C R, Side: L R, LFE
  45. Sampling rate : 48.0 kHz
  46. Frame rate : 93.750 FPS (512 spf)
  47. Bit depth : 24 bits
  48. Compression mode : Lossy
  49. Stream size : 1.05 GiB (23%)
  50. Language : German
  51. Default : Yes
  52. Forced : No
  53. Audio #2
  54. ID : 3
  55. Format : DTS
  56. Format/Info : Digital Theater Systems
  57. Mode : 16
  58. Format settings, Endianness : Big
  59. Codec ID : A_DTS
  60. Duration : 1 h 39 min
  61. Bit rate mode : Constant
  62. Bit rate : 1 509 kb/s
  63. Channel(s) : 6 channels
  64. Channel positions : Front: L C R, Side: L R, LFE
  65. Sampling rate : 48.0 kHz
  66. Frame rate : 93.750 FPS (512 spf)
  67. Bit depth : 24 bits
  68. Compression mode : Lossy
  69. Stream size : 1.05 GiB (23%)
  70. Language : English
  71. Default : No
  72. Forced : No
  73. Text #1
  74. ID : 4
  75. Format : UTF-8
  76. Codec ID : S_TEXT/UTF8
  77. Codec ID/Info : UTF-8 Plain Text
  78. Duration : 2 s 84 ms
  79. Bit rate : 249 b/s
  80. Count of elements : 1
  81. Stream size : 65.0 Bytes (0%)
  82. Title : forced
  83. Language : German
  84. Default : Yes
  85. Forced : Yes
  86. Text #2
  87. ID : 5
  88. Format : VobSub
  89. Muxing mode : zlib
  90. Codec ID : S_VOBSUB
  91. Codec ID/Info : Picture based subtitle format used on DVDs
  92. Duration : 2 s 82 ms
  93. Bit rate : 21.2 kb/s
  94. Count of elements : 1
  95. Stream size : 5.39 KiB (0%)
  96. Title : complete
  97. Language : German
  98. Default : No
  99. Forced : No
  100. Menu
  101. 00:00:00.000 : en:00:00:00.000
  102. 00:10:51.708 : en:00:10:51.708
  103. 00:19:35.417 : en:00:19:35.417
  104. 00:30:20.542 : en:00:30:20.542
  105. 00:41:31.375 : en:00:41:31.375
  106. 00:51:21.625 : en:00:51:21.625
  107. 01:01:19.792 : en:01:01:19.792
  108. 01:10:25.000 : en:01:10:25.000
  109. 01:20:10.875 : en:01:20:10.875
  110. 01:30:55.708 : en:01:30:55.708
Comments powered by Disqus