1. Source: USA Blu-ray
  2. Used DGDemux to correctly process the seamless branches.
  3. Chapters custom named since the source was only numbered.
  4. General
  5. Unique ID : 182434003733231213354109027138865886900 (0x893F82D53FDB885F2595E08DED6276B4)
  6. Complete name : Voyagers.2021.1080p.BluRay.Remux.AVC.TrueHD.5.1-PmP.mkv
  7. Format : Matroska
  8. Format version : Version 4
  9. File size : 28.2 GiB
  10. Duration : 1 h 48 min
  11. Overall bit rate mode : Variable
  12. Overall bit rate : 37.3 Mb/s
  13. Movie name : Voyagers (2021)
  14. Encoded date : UTC 2021-06-12 22:20:06
  15. Writing application : mkvmerge v55.0.0 ('Waiting For Space') 64-bit
  16. Writing library : libebml v1.4.2 + libmatroska v1.6.4
  17. IMDB : tt9664108
  18. TMDB : movie/597890
  19. Video
  20. ID : 1
  21. Format : AVC
  22. Format/Info : Advanced Video Codec
  23. Format profile : [email protected]
  24. Format settings : CABAC / 4 Ref Frames
  25. Format settings, CABAC : Yes
  26. Format settings, Reference frames : 4 frames
  27. Codec ID : V_MPEG4/ISO/AVC
  28. Duration : 1 h 48 min
  29. Bit rate mode : Variable
  30. Bit rate : 34.1 Mb/s
  31. Maximum bit rate : 37.0 Mb/s
  32. Width : 1 920 pixels
  33. Height : 1 080 pixels
  34. Display aspect ratio : 16:9
  35. Frame rate mode : Constant
  36. Frame rate : 23.976 (24000/1001) FPS
  37. Color space : YUV
  38. Chroma subsampling : 4:2:0
  39. Bit depth : 8 bits
  40. Scan type : Progressive
  41. Bits/(Pixel*Frame) : 0.686
  42. Stream size : 25.8 GiB (91%)
  43. Title : MPEG-4 AVC Video / 36156 kbps / 1080p / 23.976 fps / 16:9 / High Profile 4.1
  44. Language : English
  45. Default : Yes
  46. Forced : No
  47. Audio #1
  48. ID : 2
  49. Format : MLP FBA
  50. Format/Info : Meridian Lossless Packing FBA
  51. Commercial name : Dolby TrueHD
  52. Codec ID : A_TRUEHD
  53. Duration : 1 h 48 min
  54. Bit rate mode : Variable
  55. Bit rate : 2 411 kb/s
  56. Maximum bit rate : 4 098 kb/s
  57. Channel(s) : 6 channels
  58. Channel layout : L R C LFE Ls Rs
  59. Sampling rate : 48.0 kHz
  60. Frame rate : 1 200.000 FPS (40 SPF)
  61. Compression mode : Lossless
  62. Stream size : 1.82 GiB (6%)
  63. Title : Dolby TrueHD Audio / 5.1 / 48 kHz / 2411 kbps / 24-bit
  64. Language : English
  65. Default : Yes
  66. Forced : No
  67. Audio #2
  68. ID : 3
  69. Format : AC-3
  70. Format/Info : Audio Coding 3
  71. Commercial name : Dolby Digital
  72. Codec ID : A_AC3
  73. Duration : 1 h 48 min
  74. Bit rate mode : Constant
  75. Bit rate : 640 kb/s
  76. Channel(s) : 6 channels
  77. Channel layout : L R C LFE Ls Rs
  78. Sampling rate : 48.0 kHz
  79. Frame rate : 31.250 FPS (1536 SPF)
  80. Compression mode : Lossy
  81. Stream size : 495 MiB (2%)
  82. Title : Compatibility Track / Dolby Digital Audio / 5.1 / 48 kHz / 640 kbps
  83. Language : English
  84. Service kind : Complete Main
  85. Default : No
  86. Forced : No
  87. Text #1
  88. ID : 4
  89. Format : PGS
  90. Codec ID : S_HDMV/PGS
  91. Codec ID/Info : Picture based subtitle format used on BDs/HD-DVDs
  92. Duration : 1 h 35 min
  93. Bit rate : 23.0 kb/s
  94. Count of elements : 1862
  95. Stream size : 15.7 MiB (0%)
  96. Language : English
  97. Default : No
  98. Forced : No
  99. Text #2
  100. ID : 5
  101. Format : PGS
  102. Codec ID : S_HDMV/PGS
  103. Codec ID/Info : Picture based subtitle format used on BDs/HD-DVDs
  104. Duration : 1 h 35 min
  105. Bit rate : 28.5 kb/s
  106. Count of elements : 2302
  107. Stream size : 19.5 MiB (0%)
  108. Title : SDH
  109. Language : English
  110. Default : No
  111. Forced : No
  112. Text #3
  113. ID : 6
  114. Format : PGS
  115. Codec ID : S_HDMV/PGS
  116. Codec ID/Info : Picture based subtitle format used on BDs/HD-DVDs
  117. Duration : 1 h 36 min
  118. Bit rate : 22.3 kb/s
  119. Count of elements : 1824
  120. Stream size : 15.5 MiB (0%)
  121. Title : Latin American
  122. Language : Spanish
  123. Default : No
  124. Forced : No
  125. Menu
  126. 00:00:00.000 : en:New Planet
  127. 00:06:04.155 : en:Change of Plan
  128. 00:08:46.151 : en:10 Years Later
  129. 00:12:16.777 : en:Toxin
  130. 00:15:52.159 : en:Off the Blue
  131. 00:19:22.077 : en:Uninhibited
  132. 00:23:32.994 : en:Tactile Impulses
  133. 00:28:56.317 : en:External Repairs
  134. 00:32:33.617 : en:Emergency
  135. 00:36:56.339 : en:Election
  136. 00:39:15.310 : en:Personal Archive
  137. 00:42:26.085 : en:Feast
  138. 00:44:21.783 : en:Pleasure
  139. 00:47:20.629 : en:Losing Control
  140. 00:52:45.412 : en:Assault
  141. 00:57:52.218 : en:Systems Room
  142. 01:00:32.419 : en:Recovered Evidence
  143. 01:03:59.126 : en:Nice Little Thing
  144. 01:07:58.323 : en:Confrontation
  145. 01:13:48.090 : en:Conflict Preparation
  146. 01:19:08.410 : en:New Weapons
  147. 01:26:47.160 : en:Hunted
  148. 01:34:17.526 : en:Moving Forward
  149. 01:38:14.096 : en:86 Years After Launch
  150. 01:39:57.449 : en:End Credits
Comments powered by Disqus