1. Video.....: MPEG-4 AVC Video / 34998 kbps / 1080p / 23.976 fps / 16:9 / High Profile 4.1
  2. Audio.....: DTS-HD Master Audio / 2.0 / 48 kHz / 1576 kbps / 16-bit
  3. Source....: SHAFTS_BIG_SCORE (Usenet)
  4. Notes.....: Enjoy.
  5. General
  6. Unique ID : 73308314522401961271014810130158494644 (0x3726AAF5AB7E7800DDDD8B07CDA8A3B4)
  7. Complete name : Shafts.Big.Score.1972.1080p.BluRay.REMUX.AVC.DTS-HD.MA.2.0-EPSiLON.mkv
  8. Format : Matroska
  9. Format version : Version 4 / Version 2
  10. File size : 26.9 GiB
  11. Duration : 1 h 45 min
  12. Overall bit rate mode : Variable
  13. Overall bit rate : 36.5 Mb/s
  14. Movie name : Shaft's Big Score! (1972)
  15. Encoded date : UTC 2019-07-20 09:26:23
  16. Writing application : mkvmerge v34.0.0 ('Sight and Seen') 64-bit
  17. Writing library : libebml v1.3.9 + libmatroska v1.5.2
  18. IMDB : tt0069257
  19. TMDB : movie/493
  20. Video
  21. ID : 1
  22. Format : AVC
  23. Format/Info : Advanced Video Codec
  24. Format profile : [email protected]
  25. Format settings : CABAC / 4 Ref Frames
  26. Format settings, CABAC : Yes
  27. Format settings, ReFrames : 4 frames
  28. Codec ID : V_MPEG4/ISO/AVC
  29. Duration : 1 h 45 min
  30. Bit rate mode : Variable
  31. Bit rate : 34.9 Mb/s
  32. Maximum bit rate : 38.0 Mb/s
  33. Width : 1 920 pixels
  34. Height : 1 080 pixels
  35. Display aspect ratio : 16:9
  36. Frame rate mode : Constant
  37. Frame rate : 23.976 (24000/1001) FPS
  38. Color space : YUV
  39. Chroma subsampling : 4:2:0
  40. Bit depth : 8 bits
  41. Scan type : Progressive
  42. Bits/(Pixel*Frame) : 0.702
  43. Stream size : 25.7 GiB (96%)
  44. Title : MPEG-4 AVC Video / 34998 kbps / 1080p / 23.976 fps / 16:9 / High Profile 4.1
  45. Language : English
  46. Default : Yes
  47. Forced : No
  48. Audio
  49. ID : 2
  50. Format : DTS
  51. Format/Info : Digital Theater Systems
  52. Format profile : MA / Core
  53. Codec ID : A_DTS
  54. Duration : 1 h 45 min
  55. Bit rate mode : Variable / Constant
  56. Bit rate : 1 576 kb/s / 1 509 kb/s
  57. Channel(s) : 2 channels
  58. Channel positions : Front: L R
  59. Sampling rate : 48.0 kHz
  60. Frame rate : 93.750 FPS (512 SPF)
  61. Bit depth : 16 bits
  62. Compression mode : Lossless / Lossy
  63. Stream size : 1.16 GiB (4%)
  64. Title : DTS-HD Master Audio / 2.0 / 48 kHz / 1576 kbps / 16-bit
  65. Language : English
  66. Default : Yes
  67. Forced : No
  68. Text
  69. ID : 3
  70. Format : PGS
  71. Codec ID : S_HDMV/PGS
  72. Codec ID/Info : Picture based subtitle format used on BDs/HD-DVDs
  73. Duration : 1 h 42 min
  74. Bit rate : 53.6 kb/s
  75. Count of elements : 2196
  76. Stream size : 39.2 MiB (0%)
  77. Title : SDH
  78. Language : English
  79. Default : No
  80. Forced : No
  81. Menu
  82. 00:00:00.000 : en:Chapter 1
  83. 00:02:18.138 : en:Chapter 2
  84. 00:04:59.591 : en:Chapter 3
  85. 00:08:46.818 : en:Chapter 4
  86. 00:13:09.038 : en:Chapter 5
  87. 00:18:14.093 : en:Chapter 6
  88. 00:20:46.704 : en:Chapter 7
  89. 00:23:31.201 : en:Chapter 8
  90. 00:27:33.402 : en:Chapter 9
  91. 00:31:03.612 : en:Chapter 10
  92. 00:35:32.088 : en:Chapter 11
  93. 00:38:45.949 : en:Chapter 12
  94. 00:42:41.809 : en:Chapter 13
  95. 00:44:28.165 : en:Chapter 14
  96. 00:47:16.500 : en:Chapter 15
  97. 00:49:30.551 : en:Chapter 16
  98. 00:52:38.238 : en:Chapter 17
  99. 00:59:41.244 : en:Chapter 18
  100. 01:03:05.448 : en:Chapter 19
  101. 01:05:15.495 : en:Chapter 20
  102. 01:11:48.971 : en:Chapter 21
  103. 01:14:38.724 : en:Chapter 22
  104. 01:19:26.095 : en:Chapter 23
  105. 01:22:49.715 : en:Chapter 24
  106. 01:26:21.051 : en:Chapter 25
  107. 01:31:37.325 : en:Chapter 26
  108. 01:36:01.381 : en:Chapter 27
  109. 01:39:16.909 : en:Chapter 28
  110. 01:40:48.417 : en:Chapter 29
  111. 01:42:52.333 : en:Chapter 30
  112. 01:44:12.538 : en:Chapter 31
Comments powered by Disqus