1. General
  2. Unique ID : 231777857752997809850137891422073296216 (0xAE5ECAAAD5E13E31BAC5C4AAA4E89558)
  3. Complete name : The.Shawshank.Redemption.1994.720p.BluRay.x264-SiNNERS.mkv
  4. Format : Matroska
  5. Format version : Version 1
  6. File size : 6.56 GiB
  7. Duration : 2 h 22 min
  8. Overall bit rate : 6 589 kb/s
  9. Encoded date : UTC 2008-09-27 00:32:33
  10. Writing application : mkvmerge v2.2.0 ('Turn It On Again') built on Mar 4 2008 12:58:26
  11. Writing library : libebml v0.7.7 + libmatroska v0.8.1
  12. Video
  13. ID : 1
  14. Format : AVC
  15. Format/Info : Advanced Video Codec
  16. Format profile : [email protected]
  17. Format settings : CABAC / 5 Ref Frames
  18. Format settings, CABAC : Yes
  19. Format settings, RefFrames : 5 frames
  20. Codec ID : V_MPEG4/ISO/AVC
  21. Duration : 2 h 22 min
  22. Bit rate : 5 946 kb/s
  23. Width : 1 280 pixels
  24. Height : 720 pixels
  25. Display aspect ratio : 16:9
  26. Frame rate mode : Constant
  27. Frame rate : 23.976 FPS
  28. Color space : YUV
  29. Chroma subsampling : 4:2:0
  30. Bit depth : 8 bits
  31. Scan type : Progressive
  32. Bits/(Pixel*Frame) : 0.269
  33. Stream size : 5.79 GiB (88%)
  34. Writing library : x264 core 64 r987 e71168d
  35. Encoding settings : cabac=1 / ref=5 / deblock=1:0:0 / analyse=0x3:0x113 / me=umh / subme=6 / psy_rd=1.0:0.0 / brdo=1 / mixed_ref=1 / me_range=16 / chroma_me=1 / trellis=1 / 8x8dct=1 / cqm=0 / deadzone=21,11 / chroma_qp_offset=-2 / threads=6 / nr=0 / decimate=1 / mbaff=0 / bframes=3 / b_pyramid=1 / b_adapt=1 / b_bias=0 / direct=1 / wpredb=1 / bime=1 / keyint=250 / keyint_min=25 / scenecut=40(pre) / rc=2pass / bitrate=5946 / ratetol=1.0 / qcomp=0.60 / qpmin=10 / qpmax=51 / qpstep=4 / cplxblur=20.0 / qblur=0.5 / ip_ratio=1.40 / pb_ratio=1.30 / aq=1:1.00
  36. Language : English
  37. Default : Yes
  38. Forced : No
  39. Audio
  40. ID : 2
  41. Format : AC-3
  42. Format/Info : Audio Coding 3
  43. Codec ID : A_AC3
  44. Duration : 2 h 22 min
  45. Bit rate mode : Constant
  46. Bit rate : 640 kb/s
  47. Channel(s) : 6 channels
  48. Channel positions : Front: L C R, Side: L R, LFE
  49. Sampling rate : 48.0 kHz
  50. Frame rate : 31.250 FPS (1536 SPF)
  51. Bit depth : 16 bits
  52. Compression mode : Lossy
  53. Stream size : 653 MiB (10%)
  54. Language : English
  55. Service kind : Complete Main
  56. Default : Yes
  57. Forced : No
  58. Text
  59. ID : 3
  60. Format : UTF-8
  61. Codec ID : S_TEXT/UTF8
  62. Codec ID/Info : UTF-8 Plain Text
  63. Language : English
  64. Default : Yes
  65. Forced : No
  66. General
  67. Unique ID : 197949508361541025056047232614789883650 (0x94EBB045AA8E2DC0998DA5B8DADD2702)
  68. Complete name : The.Shawshank.Redemption.1994.1080p.BluRay.x264-CiNEFiLE.mkv
  69. Format : Matroska
  70. Format version : Version 1
  71. File size : 7.95 GiB
  72. Duration : 2h 22mn
  73. Overall bit rate : 7 982 Kbps
  74. Encoded date : UTC 2008-09-27 12:57:33
  75. Writing application : mkvmerge v2.2.0 ('Turn It On Again') built on Mar 4 2008 12:58:26
  76. Writing library : libebml v0.7.7 + libmatroska v0.8.1
  77. Video
  78. ID : 1
  79. Format : AVC
  80. Format/Info : Advanced Video Codec
  81. Format profile : [email protected]
  82. Format settings, CABAC : Yes
  83. Format settings, ReFrames : 4 frames
  84. Codec ID : V_MPEG4/ISO/AVC
  85. Duration : 2h 22mn
  86. Bit rate : 7 339 Kbps
  87. Width : 1 920 pixels
  88. Height : 1 080 pixels
  89. Display aspect ratio : 16:9
  90. Frame rate mode : Constant
  91. Frame rate : 23.976 fps
  92. Color space : YUV
  93. Chroma subsampling : 4:2:0
  94. Bit depth : 8 bits
  95. Scan type : Progressive
  96. Bits/(Pixel*Frame) : 0.148
  97. Stream size : 7.15 GiB (90%)
  98. Writing library : x264 core 64 r987 e71168d
  99. Encoding settings : cabac=1 / ref=4 / deblock=1:0:0 / analyse=0x3:0x113 / me=umh / subme=6 / psy_rd=1.0:0.0 / brdo=1 / mixed_ref=1 / me_range=16 / chroma_me=1 / trellis=1 / 8x8dct=1 / cqm=0 / deadzone=21,11 / chroma_qp_offset=-2 / threads=6 / nr=0 / decimate=1 / mbaff=0 / bframes=3 / b_pyramid=1 / b_adapt=1 / b_bias=0 / direct=1 / wpredb=1 / bime=1 / keyint=250 / keyint_min=25 / scenecut=40(pre) / rc=2pass / bitrate=7339 / ratetol=1.0 / qcomp=0.60 / qpmin=10 / qpmax=51 / qpstep=4 / cplxblur=20.0 / qblur=0.5 / ip_ratio=1.40 / pb_ratio=1.30 / aq=1:1.00
  100. Language : English
  101. Default : Yes
  102. Forced : No
  103. Audio
  104. ID : 2
  105. Format : AC-3
  106. Format/Info : Audio Coding 3
  107. Mode extension : CM (complete main)
  108. Format settings, Endianness : Big
  109. Codec ID : A_AC3
  110. Duration : 2h 22mn
  111. Bit rate mode : Constant
  112. Bit rate : 640 Kbps
  113. Channel(s) : 6 channels
  114. Channel positions : Front: L C R, Side: L R, LFE
  115. Sampling rate : 48.0 KHz
  116. Bit depth : 16 bits
  117. Compression mode : Lossy
  118. Stream size : 652 MiB (8%)
  119. Language : English
  120. Default : Yes
  121. Forced : No
  122. Text
  123. ID : 3
  124. Format : UTF-8
  125. Codec ID : S_TEXT/UTF8
  126. Codec ID/Info : UTF-8 Plain Text
  127. Language : English
  128. Default : Yes
  129. Forced : No
Comments powered by Disqus