1. General
  2. Unique ID : 80694804783609980366226532238195093768 (0x3CB5410BF8C17DCBE32EAD92FA42F108)
  3. Complete name : The.Twilight.Saga.Breaking.Dawn.Part.1.2011.2160p.HDR.WEBRip.DTS-HD.MA.7.1.x265-BLASPHEMY.mkv
  4. Format : Matroska
  5. Format version : Version 4
  6. File size : 14.4 GiB
  7. Duration : 1 h 57 min
  8. Overall bit rate mode : Variable
  9. Overall bit rate : 17.6 Mb/s
  10. Encoded date : UTC 2021-03-22 14:04:48
  11. Writing application : mkvmerge v55.0.0 ('Waiting For Space') 64-bit
  12. Writing library : libebml v1.4.2 + libmatroska v1.6.4
  13. Video
  14. ID : 1
  15. Format : HEVC
  16. Format/Info : High Efficiency Video Coding
  17. Format profile : Main [email protected]@High
  18. HDR format : SMPTE ST 2086, HDR10 compatible
  19. Codec ID : V_MPEGH/ISO/HEVC
  20. Duration : 1 h 57 min
  21. Bit rate : 12.5 Mb/s
  22. Width : 3 840 pixels
  23. Height : 1 588 pixels
  24. Display aspect ratio : 2.40:1
  25. Frame rate mode : Constant
  26. Frame rate : 23.976 (24000/1001) FPS
  27. Color space : YUV
  28. Chroma subsampling : 4:2:0 (Type 2)
  29. Bit depth : 10 bits
  30. Bits/(Pixel*Frame) : 0.085
  31. Stream size : 10.2 GiB (71%)
  32. Writing library : x265 3.4+6-g73f96ff39:[Windows][GCC 11.0.0][64 bit] 10bit
  33. Encoding settings : cpuid=1111039 / frame-threads=4 / numa-pools=28 / wpp / no-pmode / no-pme / no-psnr / no-ssim / log-level=2 / input-csp=1 / input-res=3840x1588 / interlace=0 / total-frames=120425 / level-idc=51 / high-tier=1 / uhd-bd=0 / ref=5 / no-allow-non-conformance / repeat-headers / annexb / aud / hrd / info / hash=0 / no-temporal-layers / no-open-gop / min-keyint=23 / keyint=250 / gop-lookahead=0 / bframes=8 / b-adapt=2 / b-pyramid / bframe-bias=0 / rc-lookahead=40 / lookahead-slices=0 / scenecut=40 / hist-scenecut=0 / radl=0 / no-splice / no-intra-refresh / ctu=64 / min-cu-size=8 / rect / amp / max-tu-size=32 / tu-inter-depth=4 / tu-intra-depth=4 / limit-tu=0 / rdoq-level=2 / dynamic-rd=0.00 / no-ssim-rd / signhide / no-tskip / nr-intra=0 / nr-inter=0 / no-constrained-intra / no-strong-intra-smoothing / max-merge=4 / limit-refs=1 / limit-modes / me=3 / subme=4 / merange=57 / temporal-mvp / no-frame-dup / no-hme / weightp / weightb / no-analyze-src-pics / deblock=-2:-2 / no-sao / no-sao-non-deblock / rd=6 / selective-sao=0 / no-early-skip / rskip / no-fast-intra / no-tskip-fast / no-cu-lossless / b-intra / no-splitrd-skip / rdpenalty=0 / psy-rd=2.00 / psy-rdoq=1.00 / no-rd-refine / no-lossless / cbqpoffs=0 / crqpoffs=0 / rc=crf / crf=14.0 / qcomp=0.60 / qpstep=4 / stats-write=0 / stats-read=0 / vbv-maxrate=160000 / vbv-bufsize=160000 / vbv-init=0.9 / crf-max=0.0 / crf-min=0.0 / ipratio=1.40 / pbratio=1.30 / aq-mode=2 / aq-strength=1.00 / cutree / zone-count=0 / no-strict-cbr / qg-size=32 / no-rc-grain / qpmax=69 / qpmin=0 / no-const-vbv / sar=0 / overscan=0 / videoformat=5 / range=0 / colorprim=9 / transfer=16 / colormatrix=9 / chromaloc=1 / chromaloc-top=2 / chromaloc-bottom=2 / display-window=0 / master-display=G(8500,39850)B(6550,2300)R(35400,14600)WP(15635,16450)L(10000000,50) / cll=1057,782 / min-luma=0 / max-luma=1023 / log2-max-poc-lsb=8 / vui-timing-info / vui-hrd-info / slices=1 / no-opt-qp-pps / no-opt-ref-list-length-pps / no-multi-pass-opt-rps / scenecut-bias=0.05 / hist-threshold=0.01 / no-opt-cu-delta-qp / no-aq-motion / hdr10 / hdr10-opt / no-dhdr10-opt / no-idr-recovery-sei / analysis-reuse-level=0 / analysis-save-reuse-level=0 / analysis-load-reuse-level=0 / scale-factor=0 / refine-intra=0 / refine-inter=0 / refine-mv=1 / refine-ctu-distortion=0 / no-limit-sao / ctu-info=0 / no-lowpass-dct / refine-analysis-type=0 / copy-pic=1 / max-ausize-factor=1.0 / no-dynamic-refine / no-single-sei / no-hevc-aq / no-svt / no-field / qp-adaptation-range=1.00 / no-scenecut-aware-qpconformance-window-offsets / right=0 / bottom=0 / decoder-max-rate=0
  34. Default : Yes
  35. Forced : No
  36. Color range : Limited
  37. Color primaries : BT.2020
  38. Transfer characteristics : PQ
  39. Matrix coefficients : BT.2020 non-constant
  40. Mastering display color primaries : BT.2020
  41. Mastering display luminance : min: 0.0050 cd/m2, max: 1000 cd/m2
  42. Maximum Content Light Level : 1057 cd/m2
  43. Maximum Frame-Average Light Level : 782 cd/m2
  44. Audio
  45. ID : 2
  46. Format : DTS ES XLL
  47. Format/Info : Digital Theater Systems
  48. Commercial name : DTS-HD Master Audio
  49. Codec ID : A_DTS
  50. Duration : 1 h 57 min
  51. Bit rate mode : Variable
  52. Bit rate : 5 120 kb/s
  53. Channel(s) : 8 channels
  54. Channel layout : C L R Ls Rs LFE Lb Rb
  55. Sampling rate : 48.0 kHz
  56. Frame rate : 93.750 FPS (512 SPF)
  57. Bit depth : 24 bits
  58. Compression mode : Lossless
  59. Delay relative to video : 5 ms
  60. Stream size : 4.19 GiB (29%)
  61. Language : English
  62. Default : No
  63. Forced : No
  64. Text
  65. ID : 3
  66. Format : PGS
  67. Codec ID : S_HDMV/PGS
  68. Codec ID/Info : Picture based subtitle format used on BDs/HD-DVDs
  69. Duration : 1 h 56 min
  70. Bit rate : 26.2 kb/s
  71. Count of elements : 2338
  72. Stream size : 21.8 MiB (0%)
  73. Language : English
  74. Default : No
  75. Forced : No
  76. Menu
  77. 00:00:00.000 : en:checking for cold feet
  78. 00:08:10.114 : en:something old, something blue
  79. 00:11:23.682 : en:i do
  80. 00:16:30.739 : en:let's start with forever
  81. 00:21:03.762 : en:the best man
  82. 00:29:28.266 : en:i can use a few human minutes
  83. 00:34:43.289 : en:best night of my existence
  84. 00:41:15.556 : en:check mate
  85. 00:47:42.484 : en:that's impossible
  86. 00:55:57.812 : en:you get what you always wanted
  87. 01:04:21.440 : en:i am the grandson of a chief
  88. 01:09:47.057 : en:the treaty is void
  89. 01:13:47.381 : en:you have given me no choice
  90. 01:20:50.804 : en:picture me like i was
  91. 01:28:22.964 : en:keep your heart beating
  92. 01:36:25.488 : en:if you kill her, you kill me
  93. 01:41:44.097 : en:awakening
  94. 01:46:51.696 : en:they have something i want
Comments powered by Disqus