1. Kill.Mode.2019.HDRip.XviD.AC3-EVO.avi
  2. General
  3. Unique ID : 132652260265572259549153054290646185630 (0x63CBE561CDABB71A4F2C86281AA4B69E)
  4. Complete name : F:\Kill.Mode.2019.HDRip.XviD.AC3-EVO\Kill.Mode.2019.HDRip.XviD.AC3-EVO.avi
  5. Format : Matroska
  6. Format version : Version 2
  7. File size : 1.33 GiB
  8. Duration : 1 h 37 min
  9. Overall bit rate : 1 957 kb/s
  10. Encoded date : UTC 2019-12-25T12:12:58Z
  11. Writing application : HandBrake 0.10.5 2016021100
  12. Writing library : Lavf55.12.0
  13. FileExtension_Invalid : mkv mk3d mka mks
  14. Video
  15. ID : 1
  16. Format : AVC
  17. Format/Info : Advanced Video Codec
  18. Format profile : [email protected]
  19. Format settings : CABAC / 4 Ref Frames
  20. Format settings, CABAC : Yes
  21. Format settings, Reference frames : 4 frames
  22. Codec ID : V_MPEG4/ISO/AVC
  23. Duration : 1 h 37 min
  24. Bit rate : 1 600 kb/s
  25. Width : 720 pixels
  26. Height : 300 pixels
  27. Display aspect ratio : 2.40:1
  28. Frame rate mode : Constant
  29. Frame rate : 24.000 FPS
  30. Color space : YUV
  31. Chroma subsampling : 4:2:0
  32. Bit depth : 8 bits
  33. Scan type : Progressive
  34. Bits/(Pixel*Frame) : 0.309
  35. Stream size : 1.05 GiB (78%)
  36. Writing library : x264 core 142 r2479 dd79a61
  37. Encoding settings : cabac=1 / ref=1 / deblock=1:0:0 / analyse=0x3:0x3 / me=dia / subme=1 / psy=1 / psy_rd=1.00:0.00 / mixed_ref=0 / me_range=16 / chroma_me=1 / trellis=0 / 8x8dct=1 / cqm=0 / deadzone=21,11 / fast_pskip=1 / chroma_qp_offset=0 / threads=12 / lookahead_threads=2 / sliced_threads=0 / nr=0 / decimate=1 / interlaced=0 / bluray_compat=0 / constrained_intra=0 / bframes=3 / b_pyramid=2 / b_adapt=1 / b_bias=0 / direct=1 / weightb=1 / open_gop=0 / weightp=1 / keyint=240 / keyint_min=24 / scenecut=40 / intra_refresh=0 / rc_lookahead=0 / rc=abr / mbtree=0 / bitrate=1600 / ratetol=1.0 / qcomp=0.60 / qpmin=0 / qpmax=69 / qpstep=4 / vbv_maxrate=62500 / vbv_bufsize=78125 / nal_hrd=none / filler=0 / ip_ratio=1.40 / pb_ratio=1.30 / aq=1:1.00
  38. Default : Yes
  39. Forced : No
  40. Color range : Limited
  41. Color primaries : BT.709
  42. Transfer characteristics : BT.709
  43. Matrix coefficients : BT.709
  44. Audio
  45. ID : 2
  46. Format : AC-3
  47. Format/Info : Audio Coding 3
  48. Commercial name : Dolby Digital
  49. Codec ID : A_AC3
  50. Duration : 1 h 37 min
  51. Bit rate mode : Constant
  52. Bit rate : 384 kb/s
  53. Channel(s) : 2 channels
  54. Channel layout : L R
  55. Sampling rate : 48.0 kHz
  56. Frame rate : 31.250 FPS (1536 SPF)
  57. Bit depth : 16 bits
  58. Compression mode : Lossy
  59. Delay relative to video : -5 ms
  60. Stream size : 268 MiB (20%)
  61. Title : Stereo
  62. Language : English
  63. Service kind : Complete Main
  64. Default : Yes
  65. Forced : No
Comments powered by Disqus