1. General
  2. Unique ID : 132076774612989943198014894319384248945 (0x635D0FBFAD913228AC35F6379BC9C271)
  3. Complete name : Elite.S04E01.The.New.Order.1080p.NF.WEB-DL.DDP5.1.Atmos.x264-AGLET.mkv
  4. Format : Matroska
  5. Format version : Version 4
  6. File size : 2.95 GiB
  7. Duration : 54 min 4 s
  8. Overall bit rate mode : Variable
  9. Overall bit rate : 7 812 kb/s
  10. Encoded date : UTC 2021-06-18 07:29:57
  11. Writing application : mkvmerge v57.0.0 ('Till The End') 64-bit
  12. Writing library : libebml v1.4.2 + libmatroska v1.6.4
  13. Cover : Yes
  14. Attachments : cover_land.jpg / small_cover.jpg / small_cover_land.jpg / cover.jpg / cover_land.jpg / small_cover.jpg / small_cover_land.jpg / cover.jpg
  15. Video
  16. ID : 1
  17. Format : AVC
  18. Format/Info : Advanced Video Codec
  19. Format profile : [email protected]
  20. Format settings : CABAC / 4 Ref Frames
  21. Format settings, CABAC : Yes
  22. Format settings, Reference frames : 4 frames
  23. Codec ID : V_MPEG4/ISO/AVC
  24. Duration : 54 min 3 s
  25. Bit rate mode : Variable
  26. Bit rate : 6 398 kb/s
  27. Maximum bit rate : 20.0 Mb/s
  28. Width : 1 920 pixels
  29. Height : 1 080 pixels
  30. Display aspect ratio : 16:9
  31. Frame rate mode : Constant
  32. Frame rate : 25.000 FPS
  33. Color space : YUV
  34. Chroma subsampling : 4:2:0
  35. Bit depth : 8 bits
  36. Scan type : Progressive
  37. Bits/(Pixel*Frame) : 0.123
  38. Stream size : 2.42 GiB (82%)
  39. Writing library : x264 core 148 r2722 1b0121b
  40. Encoding settings : cabac=1 / ref=4 / deblock=1:0:0 / analyse=0x3:0x111 / me=umh / subme=10 / psy=1 / psy_rd=1.00:0.00 / mixed_ref=1 / me_range=120 / chroma_me=1 / trellis=2 / 8x8dct=1 / cqm=0 / deadzone=21,11 / fast_pskip=1 / chroma_qp_offset=-2 / threads=8 / lookahead_threads=2 / sliced_threads=0 / nr=0 / decimate=1 / interlaced=0 / bluray_compat=0 / stitchable=1 / constrained_intra=0 / bframes=16 / b_pyramid=2 / b_adapt=2 / b_bias=0 / direct=3 / weightb=1 / open_gop=0 / weightp=2 / keyint=250 / keyint_min=126 / scenecut=0 / intra_refresh=0 / rc_lookahead=250 / rc=crf / mbtree=1 / crf=16.0 / qcomp=0.50 / qpmin=6 / qpmax=51 / qpstep=4 / vbv_maxrate=20000 / vbv_bufsize=25000 / crf_max=0.0 / nal_hrd=vbr / filler=0 / ip_ratio=1.40 / aq=1:0.80
  41. Default : Yes
  42. Forced : No
  43. Audio #1
  44. ID : 2
  45. Format : E-AC-3 JOC
  46. Format/Info : Enhanced AC-3 with Joint Object Coding
  47. Commercial name : Dolby Digital Plus with Dolby Atmos
  48. Codec ID : A_EAC3
  49. Duration : 54 min 4 s
  50. Bit rate mode : Constant
  51. Bit rate : 768 kb/s
  52. Channel(s) : 6 channels
  53. Channel layout : L R C LFE Ls Rs
  54. Sampling rate : 48.0 kHz
  55. Frame rate : 31.250 FPS (1536 SPF)
  56. Compression mode : Lossy
  57. Stream size : 297 MiB (10%)
  58. Language : Spanish
  59. Service kind : Complete Main
  60. Default : Yes
  61. Forced : No
  62. Complexity index : 16
  63. Number of dynamic objects : 15
  64. Bed channel count : 1 channel
  65. Bed channel configuration : LFE
  66. Audio #2
  67. ID : 3
  68. Format : E-AC-3
  69. Format/Info : Enhanced AC-3
  70. Commercial name : Dolby Digital Plus
  71. Codec ID : A_EAC3
  72. Duration : 54 min 4 s
  73. Bit rate mode : Constant
  74. Bit rate : 640 kb/s
  75. Channel(s) : 6 channels
  76. Channel layout : L R C LFE Ls Rs
  77. Sampling rate : 48.0 kHz
  78. Frame rate : 31.250 FPS (1536 SPF)
  79. Compression mode : Lossy
  80. Stream size : 248 MiB (8%)
  81. Language : English
  82. Service kind : Complete Main
  83. Default : No
  84. Forced : No
  85. Text #1
  86. ID : 4
  87. Format : UTF-8
  88. Codec ID : S_TEXT/UTF8
  89. Codec ID/Info : UTF-8 Plain Text
  90. Duration : 51 min 13 s
  91. Bit rate : 77 b/s
  92. Count of elements : 811
  93. Stream size : 29.0 KiB (0%)
  94. Title : English (SDH)
  95. Language : English
  96. Default : Yes
  97. Forced : No
  98. Text #2
  99. ID : 5
  100. Format : UTF-8
  101. Codec ID : S_TEXT/UTF8
  102. Codec ID/Info : UTF-8 Plain Text
  103. Duration : 50 min 57 s
  104. Bit rate : 51 b/s
  105. Count of elements : 631
  106. Stream size : 19.2 KiB (0%)
  107. Title : English
  108. Language : English
  109. Default : No
  110. Forced : No
  111. Text #3
  112. ID : 6
  113. Format : UTF-8
  114. Codec ID : S_TEXT/UTF8
  115. Codec ID/Info : UTF-8 Plain Text
  116. Duration : 51 min 6 s
  117. Bit rate : 66 b/s
  118. Count of elements : 789
  119. Stream size : 25.0 KiB (0%)
  120. Title : Español (SDH)
  121. Language : Spanish
  122. Default : No
  123. Forced : No
  124. Text #4
  125. ID : 7
  126. Format : UTF-8
  127. Codec ID : S_TEXT/UTF8
  128. Codec ID/Info : UTF-8 Plain Text
  129. Duration : 33 min 14 s
  130. Bit rate : 0 b/s
  131. Count of elements : 2
  132. Stream size : 56.0 Bytes (0%)
  133. Title : Español (Forced)
  134. Language : Spanish
  135. Default : No
  136. Forced : No
  137. Text #5
  138. ID : 8
  139. Format : UTF-8
  140. Codec ID : S_TEXT/UTF8
  141. Codec ID/Info : UTF-8 Plain Text
  142. Duration : 2 s 520 ms
  143. Bit rate : 92 b/s
  144. Count of elements : 1
  145. Stream size : 29.0 Bytes (0%)
  146. Title : Español (Forced)
  147. Language : Spanish
  148. Default : No
  149. Forced : No
  150. Text #6
  151. ID : 9
  152. Format : UTF-8
  153. Codec ID : S_TEXT/UTF8
  154. Codec ID/Info : UTF-8 Plain Text
  155. Duration : 52 min 57 s
  156. Bit rate : 85 b/s
  157. Count of elements : 674
  158. Stream size : 33.1 KiB (0%)
  159. Title : العربية
  160. Language : Arabic
  161. Default : No
  162. Forced : No
  163. Text #7
  164. ID : 10
  165. Format : UTF-8
  166. Codec ID : S_TEXT/UTF8
  167. Codec ID/Info : UTF-8 Plain Text
  168. Duration : 52 min 57 s
  169. Bit rate : 45 b/s
  170. Count of elements : 684
  171. Stream size : 17.6 KiB (0%)
  172. Title : Čeština
  173. Language : Czech
  174. Default : No
  175. Forced : No
  176. Text #8
  177. ID : 11
  178. Format : UTF-8
  179. Codec ID : S_TEXT/UTF8
  180. Codec ID/Info : UTF-8 Plain Text
  181. Duration : 52 min 57 s
  182. Bit rate : 46 b/s
  183. Count of elements : 652
  184. Stream size : 18.1 KiB (0%)
  185. Title : Dansk
  186. Language : Danish
  187. Default : No
  188. Forced : No
  189. Text #9
  190. ID : 12
  191. Format : UTF-8
  192. Codec ID : S_TEXT/UTF8
  193. Codec ID/Info : UTF-8 Plain Text
  194. Duration : 52 min 57 s
  195. Bit rate : 48 b/s
  196. Count of elements : 598
  197. Stream size : 18.9 KiB (0%)
  198. Title : Deutsch
  199. Language : German
  200. Default : No
  201. Forced : No
  202. Text #10
  203. ID : 13
  204. Format : UTF-8
  205. Codec ID : S_TEXT/UTF8
  206. Codec ID/Info : UTF-8 Plain Text
  207. Duration : 52 min 57 s
  208. Bit rate : 84 b/s
  209. Count of elements : 653
  210. Stream size : 32.7 KiB (0%)
  211. Title : Ελληνικά
  212. Language : Greek
  213. Default : No
  214. Forced : No
  215. Text #11
  216. ID : 14
  217. Format : UTF-8
  218. Codec ID : S_TEXT/UTF8
  219. Codec ID/Info : UTF-8 Plain Text
  220. Duration : 52 min 57 s
  221. Bit rate : 47 b/s
  222. Count of elements : 556
  223. Stream size : 18.5 KiB (0%)
  224. Title : Suomi
  225. Language : Finnish
  226. Default : No
  227. Forced : No
  228. Text #12
  229. ID : 15
  230. Format : UTF-8
  231. Codec ID : S_TEXT/UTF8
  232. Codec ID/Info : UTF-8 Plain Text
  233. Duration : 52 min 57 s
  234. Bit rate : 49 b/s
  235. Count of elements : 642
  236. Stream size : 19.3 KiB (0%)
  237. Title : Français
  238. Language : French
  239. Default : No
  240. Forced : No
  241. Text #13
  242. ID : 16
  243. Format : UTF-8
  244. Codec ID : S_TEXT/UTF8
  245. Codec ID/Info : UTF-8 Plain Text
  246. Duration : 52 min 57 s
  247. Bit rate : 81 b/s
  248. Count of elements : 629
  249. Stream size : 31.5 KiB (0%)
  250. Title : עברית
  251. Language : Hebrew
  252. Default : No
  253. Forced : No
  254. Text #14
  255. ID : 17
  256. Format : UTF-8
  257. Codec ID : S_TEXT/UTF8
  258. Codec ID/Info : UTF-8 Plain Text
  259. Duration : 52 min 56 s
  260. Bit rate : 43 b/s
  261. Count of elements : 656
  262. Stream size : 17.0 KiB (0%)
  263. Title : Hrvatski
  264. Language : Croatian
  265. Default : No
  266. Forced : No
  267. Text #15
  268. ID : 18
  269. Format : UTF-8
  270. Codec ID : S_TEXT/UTF8
  271. Codec ID/Info : UTF-8 Plain Text
  272. Duration : 52 min 57 s
  273. Bit rate : 45 b/s
  274. Count of elements : 661
  275. Stream size : 17.6 KiB (0%)
  276. Title : Magyar
  277. Language : Hungarian
  278. Default : No
  279. Forced : No
  280. Text #16
  281. ID : 19
  282. Format : UTF-8
  283. Codec ID : S_TEXT/UTF8
  284. Codec ID/Info : UTF-8 Plain Text
  285. Duration : 52 min 57 s
  286. Bit rate : 45 b/s
  287. Count of elements : 674
  288. Stream size : 17.8 KiB (0%)
  289. Title : Bahasa Indonesia
  290. Language : Indonesian
  291. Default : No
  292. Forced : No
  293. Text #17
  294. ID : 20
  295. Format : UTF-8
  296. Codec ID : S_TEXT/UTF8
  297. Codec ID/Info : UTF-8 Plain Text
  298. Duration : 52 min 57 s
  299. Bit rate : 45 b/s
  300. Count of elements : 675
  301. Stream size : 17.8 KiB (0%)
  302. Title : Italiano
  303. Language : Italian
  304. Default : No
  305. Forced : No
  306. Text #18
  307. ID : 21
  308. Format : UTF-8
  309. Codec ID : S_TEXT/UTF8
  310. Codec ID/Info : UTF-8 Plain Text
  311. Duration : 52 min 57 s
  312. Bit rate : 46 b/s
  313. Count of elements : 679
  314. Stream size : 18.1 KiB (0%)
  315. Title : 日本語
  316. Language : Japanese
  317. Default : No
  318. Forced : No
  319. Text #19
  320. ID : 22
  321. Format : UTF-8
  322. Codec ID : S_TEXT/UTF8
  323. Codec ID/Info : UTF-8 Plain Text
  324. Duration : 52 min 57 s
  325. Bit rate : 61 b/s
  326. Count of elements : 690
  327. Stream size : 24.0 KiB (0%)
  328. Title : 한국어
  329. Language : Korean
  330. Default : No
  331. Forced : No
  332. Text #20
  333. ID : 23
  334. Format : UTF-8
  335. Codec ID : S_TEXT/UTF8
  336. Codec ID/Info : UTF-8 Plain Text
  337. Duration : 52 min 57 s
  338. Bit rate : 46 b/s
  339. Count of elements : 657
  340. Stream size : 18.1 KiB (0%)
  341. Title : Bahasa Malaysia
  342. Language : Malay
  343. Default : No
  344. Forced : No
  345. Text #21
  346. ID : 24
  347. Format : UTF-8
  348. Codec ID : S_TEXT/UTF8
  349. Codec ID/Info : UTF-8 Plain Text
  350. Duration : 52 min 57 s
  351. Bit rate : 46 b/s
  352. Count of elements : 624
  353. Stream size : 18.2 KiB (0%)
  354. Title : Norsk Bokmål
  355. Language : Norwegian Bokmal
  356. Default : No
  357. Forced : No
  358. Text #22
  359. ID : 25
  360. Format : UTF-8
  361. Codec ID : S_TEXT/UTF8
  362. Codec ID/Info : UTF-8 Plain Text
  363. Duration : 52 min 57 s
  364. Bit rate : 46 b/s
  365. Count of elements : 619
  366. Stream size : 18.1 KiB (0%)
  367. Title : Nederlands
  368. Language : Dutch
  369. Default : No
  370. Forced : No
  371. Text #23
  372. ID : 26
  373. Format : UTF-8
  374. Codec ID : S_TEXT/UTF8
  375. Codec ID/Info : UTF-8 Plain Text
  376. Duration : 52 min 57 s
  377. Bit rate : 47 b/s
  378. Count of elements : 658
  379. Stream size : 18.3 KiB (0%)
  380. Title : Polski
  381. Language : Polish
  382. Default : No
  383. Forced : No
  384. Text #24
  385. ID : 27
  386. Format : UTF-8
  387. Codec ID : S_TEXT/UTF8
  388. Codec ID/Info : UTF-8 Plain Text
  389. Duration : 52 min 57 s
  390. Bit rate : 46 b/s
  391. Count of elements : 644
  392. Stream size : 17.9 KiB (0%)
  393. Title : Português
  394. Language : Portuguese
  395. Default : No
  396. Forced : No
  397. Text #25
  398. ID : 28
  399. Format : UTF-8
  400. Codec ID : S_TEXT/UTF8
  401. Codec ID/Info : UTF-8 Plain Text
  402. Duration : 52 min 57 s
  403. Bit rate : 45 b/s
  404. Count of elements : 675
  405. Stream size : 17.8 KiB (0%)
  406. Title : Português (Brasil)
  407. Language : Portuguese
  408. Default : No
  409. Forced : No
  410. Text #26
  411. ID : 29
  412. Format : UTF-8
  413. Codec ID : S_TEXT/UTF8
  414. Codec ID/Info : UTF-8 Plain Text
  415. Duration : 52 min 57 s
  416. Bit rate : 52 b/s
  417. Count of elements : 635
  418. Stream size : 20.5 KiB (0%)
  419. Title : Română
  420. Language : Romanian
  421. Default : No
  422. Forced : No
  423. Text #27
  424. ID : 30
  425. Format : UTF-8
  426. Codec ID : S_TEXT/UTF8
  427. Codec ID/Info : UTF-8 Plain Text
  428. Duration : 52 min 57 s
  429. Bit rate : 78 b/s
  430. Count of elements : 657
  431. Stream size : 30.5 KiB (0%)
  432. Title : Русский
  433. Language : Russian
  434. Default : No
  435. Forced : No
  436. Text #28
  437. ID : 31
  438. Format : UTF-8
  439. Codec ID : S_TEXT/UTF8
  440. Codec ID/Info : UTF-8 Plain Text
  441. Duration : 52 min 57 s
  442. Bit rate : 48 b/s
  443. Count of elements : 563
  444. Stream size : 18.9 KiB (0%)
  445. Title : Svenska
  446. Language : Swedish
  447. Default : No
  448. Forced : No
  449. Text #29
  450. ID : 32
  451. Format : UTF-8
  452. Codec ID : S_TEXT/UTF8
  453. Codec ID/Info : UTF-8 Plain Text
  454. Duration : 52 min 57 s
  455. Bit rate : 122 b/s
  456. Count of elements : 677
  457. Stream size : 47.7 KiB (0%)
  458. Title : ไทย
  459. Language : Thai
  460. Default : No
  461. Forced : No
  462. Text #30
  463. ID : 33
  464. Format : UTF-8
  465. Codec ID : S_TEXT/UTF8
  466. Codec ID/Info : UTF-8 Plain Text
  467. Duration : 52 min 57 s
  468. Bit rate : 50 b/s
  469. Count of elements : 648
  470. Stream size : 19.7 KiB (0%)
  471. Title : Türkçe
  472. Language : Turkish
  473. Default : No
  474. Forced : No
  475. Text #31
  476. ID : 34
  477. Format : UTF-8
  478. Codec ID : S_TEXT/UTF8
  479. Codec ID/Info : UTF-8 Plain Text
  480. Duration : 52 min 57 s
  481. Bit rate : 75 b/s
  482. Count of elements : 686
  483. Stream size : 29.4 KiB (0%)
  484. Title : Українська
  485. Language : Ukrainian
  486. Default : No
  487. Forced : No
  488. Text #32
  489. ID : 35
  490. Format : UTF-8
  491. Codec ID : S_TEXT/UTF8
  492. Codec ID/Info : UTF-8 Plain Text
  493. Duration : 52 min 57 s
  494. Bit rate : 78 b/s
  495. Count of elements : 683
  496. Stream size : 30.5 KiB (0%)
  497. Title : Tiếng Việt
  498. Language : Vietnamese
  499. Default : No
  500. Forced : No
  501. Text #33
  502. ID : 36
  503. Format : UTF-8
  504. Codec ID : S_TEXT/UTF8
  505. Codec ID/Info : UTF-8 Plain Text
  506. Duration : 52 min 57 s
  507. Bit rate : 54 b/s
  508. Count of elements : 677
  509. Stream size : 21.1 KiB (0%)
  510. Title : 中文(简体)
  511. Language : Chinese
  512. Default : No
  513. Forced : No
  514. Text #34
  515. ID : 37
  516. Format : UTF-8
  517. Codec ID : S_TEXT/UTF8
  518. Codec ID/Info : UTF-8 Plain Text
  519. Duration : 52 min 57 s
  520. Bit rate : 47 b/s
  521. Count of elements : 768
  522. Stream size : 18.4 KiB (0%)
  523. Title : 中文(繁體)
  524. Language : Chinese
  525. Default : No
  526. Forced : No
Comments powered by Disqus