1. General
  2. Unique ID : 75103600542935576736407590485721602943 (0x38806D64F45B5A2B5C3B1FAF81C3DB7F)
  3. Complete name : unfired-mune-x265.mkv
  4. Format : Matroska
  5. Format version : Version 2
  6. File size : 2.76 GiB
  7. Duration : 1 h 25 min
  8. Overall bit rate : 4 614 kb/s
  9. Encoded date : UTC 2018-04-15 16:15:20
  10. Writing application : mkvmerge v21.0.0 ('Tardigrades Will Inherit The Earth') 64-bit
  11. Writing library : libebml v1.3.5 + libmatroska v1.4.8
  12. Video
  13. ID : 1
  14. Format : HEVC
  15. Format/Info : High Efficiency Video Coding
  16. Format profile : [email protected]@Main
  17. Codec ID : V_MPEGH/ISO/HEVC
  18. Duration : 1 h 25 min
  19. Bit rate : 1 593 kb/s
  20. Width : 1 920 pixels
  21. Height : 804 pixels
  22. Display aspect ratio : 2.40:1
  23. Frame rate mode : Constant
  24. Frame rate : 23.976 (24000/1001) FPS
  25. Color space : YUV
  26. Chroma subsampling : 4:2:0
  27. Bit depth : 8 bits
  28. Bits/(Pixel*Frame) : 0.043
  29. Stream size : 974 MiB (35%)
  30. Writing library : x265 2.7+1-2aa737a99f51:[Windows][GCC 7.3.0][64 bit] 8bit+10bit+12bit
  31. Encoding settings : cpuid=1050111 / frame-threads=16 / numa-pools=16,16 / wpp / no-pmode / no-pme / no-psnr / no-ssim / log-level=2 / input-csp=1 / input-res=1920x804 / interlace=0 / total-frames=123037 / level-idc=0 / high-tier=1 / uhd-bd=0 / ref=4 / no-allow-non-conformance / no-repeat-headers / annexb / no-aud / no-hrd / info / hash=0 / no-temporal-layers / open-gop / min-keyint=23 / keyint=250 / gop-lookahead=0 / bframes=4 / b-adapt=2 / b-pyramid / bframe-bias=0 / rc-lookahead=25 / lookahead-slices=4 / scenecut=40 / radl=0 / no-intra-refresh / ctu=64 / min-cu-size=8 / rect / no-amp / max-tu-size=32 / tu-inter-depth=1 / tu-intra-depth=1 / limit-tu=0 / rdoq-level=2 / dynamic-rd=0.00 / no-ssim-rd / signhide / no-tskip / nr-intra=0 / nr-inter=0 / no-constrained-intra / strong-intra-smoothing / max-merge=3 / limit-refs=3 / limit-modes / me=3 / subme=3 / merange=57 / temporal-mvp / weightp / no-weightb / no-analyze-src-pics / deblock=0:0 / sao / no-sao-non-deblock / rd=4 / no-early-skip / rskip / no-fast-intra / no-tskip-fast / no-cu-lossless / no-b-intra / no-splitrd-skip / rdpenalty=0 / psy-rd=2.00 / psy-rdoq=1.00 / no-rd-refine / no-lossless / cbqpoffs=0 / crqpoffs=0 / rc=crf / crf=19.9 / qcomp=0.60 / qpstep=4 / stats-write=0 / stats-read=0 / ipratio=1.40 / pbratio=1.30 / aq-mode=1 / aq-strength=1.00 / cutree / zone-count=0 / no-strict-cbr / qg-size=32 / no-rc-grain / qpmax=69 / qpmin=0 / no-const-vbv / sar=1 / overscan=0 / videoformat=5 / range=0 / colorprim=2 / transfer=2 / colormatrix=2 / chromaloc=0 / display-window=0 / max-cll=0,0 / min-luma=0 / max-luma=255 / log2-max-poc-lsb=8 / vui-timing-info / vui-hrd-info / slices=1 / no-opt-qp-pps / no-opt-ref-list-length-pps / no-multi-pass-opt-rps / scenecut-bias=0.05 / no-opt-cu-delta-qp / no-aq-motion / no-hdr / no-hdr-opt / no-dhdr10-opt / analysis-reuse-level=5 / scale-factor=0 / refine-intra=0 / refine-inter=0 / refine-mv=0 / no-limit-sao / ctu-info=0 / no-lowpass-dct / refine-mv-type=0 / copy-pic=1
  32. Default : Yes
  33. Forced : No
  34. Audio #1
  35. ID : 2
  36. Format : DTS
  37. Format/Info : Digital Theater Systems
  38. Mode : 16
  39. Format settings, Endianness : Big
  40. Codec ID : A_DTS
  41. Duration : 1 h 25 min
  42. Bit rate mode : Constant
  43. Bit rate : 1 509 kb/s
  44. Channel(s) : 6 channels
  45. Channel positions : Front: L C R, Side: L R, LFE
  46. Sampling rate : 48.0 kHz
  47. Frame rate : 93.750 FPS (512 spf)
  48. Bit depth : 24 bits
  49. Compression mode : Lossy
  50. Stream size : 923 MiB (33%)
  51. Language : German
  52. Default : Yes
  53. Forced : No
  54. Audio #2
  55. ID : 3
  56. Format : DTS
  57. Format/Info : Digital Theater Systems
  58. Mode : 16
  59. Format settings, Endianness : Big
  60. Codec ID : A_DTS
  61. Duration : 1 h 25 min
  62. Bit rate mode : Constant
  63. Bit rate : 1 509 kb/s
  64. Channel(s) : 6 channels
  65. Channel positions : Front: L C R, Side: L R, LFE
  66. Sampling rate : 48.0 kHz
  67. Frame rate : 93.750 FPS (512 spf)
  68. Bit depth : 24 bits
  69. Compression mode : Lossy
  70. Stream size : 923 MiB (33%)
  71. Language : English
  72. Default : No
  73. Forced : No
  74. Menu
  75. 00:00:00.000 : en:00:00:00.000
  76. 00:10:46.729 : en:00:10:46.729
  77. 00:20:15.798 : en:00:20:15.798
  78. 00:30:17.774 : en:00:30:17.774
  79. 00:39:46.884 : en:00:39:46.884
  80. 00:50:12.259 : en:00:50:12.259
  81. 01:00:38.051 : en:01:00:38.051
  82. 01:10:07.537 : en:01:10:07.537
  83. 01:19:28.389 : en:01:19:28.389
Comments powered by Disqus