1. General
  2. Unique ID : 175857863647324887142811854178950625845 (0x844CFE181CED048B498BB9161B9CBA35)
  3. Complete name : unfired-theroad-x265.mkv
  4. Format : Matroska
  5. Format version : Version 2
  6. File size : 3.76 GiB
  7. Duration : 1 h 51 min
  8. Overall bit rate : 4 835 kb/s
  9. Encoded date : UTC 2018-06-09 12:08:53
  10. Writing application : mkvmerge v22.0.0 ('At The End Of The World') 64-bit
  11. Writing library : libebml v1.3.5 + libmatroska v1.4.8
  12. Video
  13. ID : 1
  14. Format : HEVC
  15. Format/Info : High Efficiency Video Coding
  16. Format profile : [email protected]@Main
  17. Codec ID : V_MPEGH/ISO/HEVC
  18. Duration : 1 h 51 min
  19. Bit rate : 1 811 kb/s
  20. Width : 1 920 pixels
  21. Height : 1 080 pixels
  22. Display aspect ratio : 16:9
  23. Frame rate mode : Constant
  24. Frame rate : 24.000 FPS
  25. Color space : YUV
  26. Chroma subsampling : 4:2:0
  27. Bit depth : 8 bits
  28. Bits/(Pixel*Frame) : 0.036
  29. Stream size : 1.41 GiB (37%)
  30. Writing library : x265 2.7+1-2aa737a99f51:[Windows][GCC 7.3.0][64 bit] 8bit+10bit+12bit
  31. Encoding settings : cpuid=1173503 / frame-threads=4 / numa-pools=16 / wpp / no-pmode / no-pme / no-psnr / no-ssim / log-level=2 / input-csp=1 / input-res=1920x1080 / interlace=0 / total-frames=160531 / level-idc=0 / high-tier=1 / uhd-bd=0 / ref=4 / no-allow-non-conformance / no-repeat-headers / annexb / no-aud / no-hrd / info / hash=0 / no-temporal-layers / open-gop / min-keyint=24 / keyint=250 / gop-lookahead=0 / bframes=4 / b-adapt=2 / b-pyramid / bframe-bias=0 / rc-lookahead=25 / lookahead-slices=4 / scenecut=40 / radl=0 / no-intra-refresh / ctu=64 / min-cu-size=8 / rect / no-amp / max-tu-size=32 / tu-inter-depth=1 / tu-intra-depth=1 / limit-tu=0 / rdoq-level=2 / dynamic-rd=0.00 / no-ssim-rd / signhide / no-tskip / nr-intra=0 / nr-inter=0 / no-constrained-intra / strong-intra-smoothing / max-merge=3 / limit-refs=3 / limit-modes / me=3 / subme=3 / merange=57 / temporal-mvp / weightp / no-weightb / no-analyze-src-pics / deblock=0:0 / sao / no-sao-non-deblock / rd=4 / no-early-skip / rskip / no-fast-intra / no-tskip-fast / no-cu-lossless / no-b-intra / no-splitrd-skip / rdpenalty=0 / psy-rd=2.00 / psy-rdoq=1.00 / no-rd-refine / no-lossless / cbqpoffs=0 / crqpoffs=0 / rc=crf / crf=19.9 / qcomp=0.60 / qpstep=4 / stats-write=0 / stats-read=0 / ipratio=1.40 / pbratio=1.30 / aq-mode=1 / aq-strength=1.00 / cutree / zone-count=0 / no-strict-cbr / qg-size=32 / no-rc-grain / qpmax=69 / qpmin=0 / no-const-vbv / sar=1 / overscan=0 / videoformat=5 / range=0 / colorprim=2 / transfer=2 / colormatrix=2 / chromaloc=0 / display-window=0 / max-cll=0,0 / min-luma=0 / max-luma=255 / log2-max-poc-lsb=8 / vui-timing-info / vui-hrd-info / slices=1 / no-opt-qp-pps / no-opt-ref-list-length-pps / no-multi-pass-opt-rps / scenecut-bias=0.05 / no-opt-cu-delta-qp / no-aq-motion / no-hdr / no-hdr-opt / no-dhdr10-opt / analysis-reuse-level=5 / scale-factor=0 / refine-intra=0 / refine-inter=0 / refine-mv=0 / no-limit-sao / ctu-info=0 / no-lowpass-dct / refine-mv-type=0 / copy-pic=1
  32. Default : Yes
  33. Forced : No
  34. Audio #1
  35. ID : 2
  36. Format : DTS
  37. Format/Info : Digital Theater Systems
  38. Codec ID : A_DTS
  39. Duration : 1 h 51 min
  40. Bit rate mode : Constant
  41. Bit rate : 1 509 kb/s
  42. Channel(s) : 6 channels
  43. Channel positions : Front: L C R, Side: L R, LFE
  44. Sampling rate : 48.0 kHz
  45. Frame rate : 93.750 FPS (512 SPF)
  46. Bit depth : 24 bits
  47. Compression mode : Lossy
  48. Stream size : 1.18 GiB (31%)
  49. Language : German
  50. Default : Yes
  51. Forced : No
  52. Audio #2
  53. ID : 3
  54. Format : DTS
  55. Format/Info : Digital Theater Systems
  56. Codec ID : A_DTS
  57. Duration : 1 h 51 min
  58. Bit rate mode : Constant
  59. Bit rate : 1 509 kb/s
  60. Channel(s) : 6 channels
  61. Channel positions : Front: L C R, Side: L R, LFE
  62. Sampling rate : 48.0 kHz
  63. Frame rate : 93.750 FPS (512 SPF)
  64. Bit depth : 24 bits
  65. Compression mode : Lossy
  66. Stream size : 1.18 GiB (31%)
  67. Language : English
  68. Default : No
  69. Forced : No
  70. Text
  71. ID : 4
  72. Format : VobSub
  73. Muxing mode : zlib
  74. Codec ID : S_VOBSUB
  75. Codec ID/Info : Picture based subtitle format used on DVDs
  76. Duration : 1 h 46 min
  77. Bit rate : 4 291 b/s
  78. Count of elements : 699
  79. Stream size : 3.26 MiB (0%)
  80. Title : complete
  81. Language : German
  82. Default : Yes
  83. Forced : No
  84. Menu
  85. 00:00:00.000 : en:00:00:00.000
  86. 00:07:59.125 : en:00:07:59.125
  87. 00:17:44.375 : en:00:17:44.375
  88. 00:27:12.750 : en:00:27:12.750
  89. 00:36:17.958 : en:00:36:17.958
  90. 00:44:43.917 : en:00:44:43.917
  91. 00:52:11.167 : en:00:52:11.167
  92. 00:59:38.667 : en:00:59:38.667
  93. 01:07:21.667 : en:01:07:21.667
  94. 01:14:41.750 : en:01:14:41.750
  95. 01:22:36.208 : en:01:22:36.208
  96. 01:29:53.042 : en:01:29:53.042
  97. 01:38:39.417 : en:01:38:39.417
  98. 01:44:03.458 : en:01:44:03.458
Comments powered by Disqus