1. Darkest.Hour.2017.DVDScr.XVID.AC3.HQ.Hive-CM8
  2. Thx Hive
  3. CM8 Doing It Right The First Time
  4. Source: a cool dude on the street
  5. thx
  6. Notes:
  7. another goodie
  8. DonĀ“t forget watching a scr is not like the real thing, you should still all go to the cinema and support the Producers, thx
  9. We especially sharing this for the people who cant visit the cinema due to illness or because it is a limited release that doesnt make it to their country,
  10. so that they also can experience some award nominations.
  11. Encode:
  12. quality was nice, not much to do
  13. enjoy
  14. Screeners:
  15. We are still missing hostiles,downsizing,phantom thread,gr.showman,money in the world anyone want to share for the collection?
  16. only serious people plz
  17. Don't post info public or on any blog its too risky, it has to be done safely and secure in private, and we have proven that we can do it.
  18. Msg us [email protected] - we will respect your wishes
  19. if you want to share with us in private it will stay private
  20. Video: 720x384 @bitrate 1700 2pass
  21. Audio: English Stereo
  22. Sample: yes included
  23. http://www.imdb.com/title/tt4555426/
  24. General
  25. Format : AVI
  26. Format/Info : Audio Video Interleave
  27. File size : 1.90 GiB
  28. Duration : 2h 4mn
  29. Overall bit rate : 2 182 Kbps
  30. Writing application : Nandub v1.0rc2
  31. Writing library : Nandub build 1853/release
  32. Video
  33. ID : 0
  34. Format : MPEG-4 Visual
  35. Format profile : Advanced [email protected]
  36. Format settings, BVOP : 2
  37. Format settings, QPel : Yes
  38. Format settings, GMC : No warppoints
  39. Format settings, Matrix : Default (H.263)
  40. Muxing mode : Packed bitstream
  41. Codec ID : XVID
  42. Codec ID/Hint : XviD
  43. Duration : 2h 4mn
  44. Bit rate : 1 914 Kbps
  45. Width : 720 pixels
  46. Height : 384 pixels
  47. Display aspect ratio : 1.85:1
  48. Frame rate : 30.000 fps
  49. Color space : YUV
  50. Chroma subsampling : 4:2:0
  51. Bit depth : 8 bits
  52. Scan type : Progressive
  53. Compression mode : Lossy
  54. Bits/(Pixel*Frame) : 0.231
  55. Stream size : 1.67 GiB (88%)
  56. Writing library : XviD 1.2.1 (UTC 2008-12-04)
  57. Audio
  58. ID : 1
  59. Format : AC-3
  60. Format/Info : Audio Coding 3
  61. Mode extension : CM (complete main)
  62. Format settings, Endianness : Big
  63. Codec ID : 2000
  64. Duration : 2h 4mn
  65. Bit rate mode : Constant
  66. Bit rate : 256 Kbps
  67. Channel(s) : 2 channels
  68. Channel positions : Front: L R
  69. Sampling rate : 48.0 KHz
  70. Bit depth : 16 bits
  71. Compression mode : Lossy
  72. Stream size : 229 MiB (12%)
  73. Alignment : Split accross interleaves
  74. Interleave, duration : 33 ms (1.00 video frame)
  75. Interleave, preload duration : 500 ms
Comments powered by Disqus