1. General
  2. Unique ID : 181175353185783047598611906921634207221 (0x884D1A91E2CF27C39681D612A59415F5)
  3. Complete name : unfired-taffemaedels-x265.mkv
  4. Format : Matroska
  5. Format version : Version 2
  6. File size : 4.18 GiB
  7. Duration : 2 h 0 min
  8. Overall bit rate : 4 976 kb/s
  9. Encoded date : UTC 2017-08-12 00:26:51
  10. Writing application : mkvmerge v14.0.0 ('Flow') 64bit
  11. Writing library : libebml v1.3.4 + libmatroska v1.4.5
  12. Video
  13. ID : 1
  14. Format : HEVC
  15. Format/Info : High Efficiency Video Coding
  16. Format profile : [email protected]@Main
  17. Codec ID : V_MPEGH/ISO/HEVC
  18. Duration : 2 h 0 min
  19. Bit rate : 2 688 kb/s
  20. Width : 1 920 pixels
  21. Height : 800 pixels
  22. Display aspect ratio : 2.40:1
  23. Frame rate mode : Constant
  24. Frame rate : 23.976 (24000/1001) FPS
  25. Color space : YUV
  26. Chroma subsampling : 4:2:0
  27. Bit depth : 8 bits
  28. Bits/(Pixel*Frame) : 0.073
  29. Stream size : 2.26 GiB (54%)
  30. Writing library : x265 2.5+2-18fa144d453e:[Windows][GCC 7.1.0][64 bit] 8bit+10bit+12bit
  31. Encoding settings : cpuid=1050111 / frame-threads=3 / numa-pools=8 / wpp / no-pmode / no-pme / no-psnr / no-ssim / log-level=2 / input-csp=1 / input-res=1920x800 / interlace=0 / total-frames=173109 / level-idc=0 / high-tier=1 / uhd-bd=0 / ref=4 / no-allow-non-conformance / no-repeat-headers / annexb / no-aud / no-hrd / info / hash=0 / no-temporal-layers / open-gop / min-keyint=23 / keyint=250 / bframes=4 / b-adapt=2 / b-pyramid / bframe-bias=0 / rc-lookahead=25 / lookahead-slices=4 / scenecut=40 / no-intra-refresh / ctu=64 / min-cu-size=8 / rect / no-amp / max-tu-size=32 / tu-inter-depth=1 / tu-intra-depth=1 / limit-tu=0 / rdoq-level=2 / dynamic-rd=0.00 / no-ssim-rd / signhide / no-tskip / nr-intra=0 / nr-inter=0 / no-constrained-intra / strong-intra-smoothing / max-merge=3 / limit-refs=3 / limit-modes / me=3 / subme=3 / merange=57 / temporal-mvp / weightp / no-weightb / no-analyze-src-pics / deblock=0:0 / sao / no-sao-non-deblock / rd=4 / no-early-skip / rskip / no-fast-intra / no-tskip-fast / no-cu-lossless / no-b-intra / rdpenalty=0 / psy-rd=2.00 / psy-rdoq=1.00 / no-rd-refine / analysis-reuse-mode=0 / no-lossless / cbqpoffs=0 / crqpoffs=0 / rc=crf / crf=19.9 / qcomp=0.60 / qpstep=4 / stats-write=0 / stats-read=0 / ipratio=1.40 / pbratio=1.30 / aq-mode=1 / aq-strength=1.00 / cutree / zone-count=0 / no-strict-cbr / qg-size=32 / no-rc-grain / qpmax=69 / qpmin=0 / no-const-vbv / sar=1 / overscan=0 / videoformat=5 / range=0 / colorprim=2 / transfer=2 / colormatrix=2 / chromaloc=0 / display-window=0 / max-cll=0,0 / min-luma=0 / max-luma=255 / log2-max-poc-lsb=8 / vui-timing-info / vui-hrd-info / slices=1 / opt-qp-pps / opt-ref-list-length-pps / no-multi-pass-opt-rps / scenecut-bias=0.05 / no-opt-cu-delta-qp / no-aq-motion / no-hdr / no-hdr-opt / no-dhdr10-opt / analysis-reuse-level=5 / scale-factor=0 / refine-intra=0 / refine-inter=0 / refine-mv=0 / no-limit-sao / ctu-info=0
  32. Default : Yes
  33. Forced : No
  34. Audio #1
  35. ID : 2
  36. Format : DTS
  37. Format/Info : Digital Theater Systems
  38. Mode : 16
  39. Format settings, Endianness : Big
  40. Codec ID : A_DTS
  41. Duration : 2 h 0 min
  42. Bit rate mode : Constant
  43. Bit rate : 768 kb/s
  44. Channel(s) : 6 channels
  45. Channel positions : Front: L C R, Side: L R, LFE
  46. Sampling rate : 48.0 kHz
  47. Frame rate : 93.750 FPS (512 spf)
  48. Bit depth : 24 bits
  49. Compression mode : Lossy
  50. Stream size : 661 MiB (15%)
  51. Language : German
  52. Default : Yes
  53. Forced : No
  54. Audio #2
  55. ID : 3
  56. Format : DTS
  57. Format/Info : Digital Theater Systems
  58. Mode : 16
  59. Format settings, Endianness : Big
  60. Codec ID : A_DTS
  61. Duration : 2 h 0 min
  62. Bit rate mode : Constant
  63. Bit rate : 1 509 kb/s
  64. Channel(s) : 6 channels
  65. Channel positions : Front: L C R, Side: L R, LFE
  66. Sampling rate : 48.0 kHz
  67. Frame rate : 93.750 FPS (512 spf)
  68. Bit depth : 24 bits
  69. Compression mode : Lossy
  70. Stream size : 1.27 GiB (30%)
  71. Language : English
  72. Default : No
  73. Forced : No
  74. Text #1
  75. ID : 4
  76. Format : UTF-8
  77. Codec ID : S_TEXT/UTF8
  78. Codec ID/Info : UTF-8 Plain Text
  79. Duration : 8 min 58 s
  80. Bit rate : 0 b/s
  81. Count of elements : 2
  82. Stream size : 49.0 Bytes (0%)
  83. Title : forced
  84. Language : German
  85. Default : Yes
  86. Forced : Yes
  87. Text #2
  88. ID : 5
  89. Format : VobSub
  90. Muxing mode : zlib
  91. Codec ID : S_VOBSUB
  92. Codec ID/Info : Picture based subtitle format used on DVDs
  93. Duration : 1 h 58 min
  94. Bit rate : 14.8 kb/s
  95. Count of elements : 2214
  96. Stream size : 12.5 MiB (0%)
  97. Title : complete
  98. Language : German
  99. Default : No
  100. Forced : No
  101. Menu
  102. 00:00:00.000 : en:00:00:00.000
  103. 00:01:46.023 : en:00:01:46.023
  104. 00:05:28.453 : en:00:05:28.453
  105. 00:07:15.977 : en:00:07:15.977
  106. 00:11:26.436 : en:00:11:26.436
  107. 00:14:17.899 : en:00:14:17.899
  108. 00:16:38.956 : en:00:16:38.956
  109. 00:19:50.940 : en:00:19:50.940
  110. 00:23:23.610 : en:00:23:23.610
  111. 00:26:18.118 : en:00:26:18.118
  112. 00:30:11.977 : en:00:30:11.977
  113. 00:34:07.837 : en:00:34:07.837
  114. 00:36:27.101 : en:00:36:27.101
  115. 00:39:12.975 : en:00:39:12.975
  116. 00:44:44.140 : en:00:44:44.140
  117. 00:47:59.585 : en:00:47:59.585
  118. 00:52:59.801 : en:00:52:59.801
  119. 00:56:13.787 : en:00:56:13.787
  120. 01:00:57.779 : en:01:00:57.779
  121. 01:03:25.802 : en:01:03:25.802
  122. 01:05:47.151 : en:01:05:47.151
  123. 01:09:34.795 : en:01:09:34.795
  124. 01:17:00.574 : en:01:17:00.574
  125. 01:23:38.638 : en:01:23:38.638
  126. 01:26:51.623 : en:01:26:51.623
  127. 01:28:37.020 : en:01:28:37.020
  128. 01:31:07.420 : en:01:31:07.420
  129. 01:34:08.559 : en:01:34:08.559
  130. 01:37:03.234 : en:01:37:03.234
  131. 01:39:41.225 : en:01:39:41.225
  132. 01:44:20.671 : en:01:44:20.671
  133. 01:45:41.502 : en:01:45:41.502
  134. 01:48:54.569 : en:01:48:54.569
  135. 01:51:15.710 : en:01:51:15.710
  136. 01:54:02.711 : en:01:54:02.711
  137. 01:55:24.876 : en:01:55:24.876
Comments powered by Disqus