1. 1440-06-05 09:48:22.506
  2. Application version: 4.0.1.0
  3. http://localhost:8096/emby/videos/1552/hls1/main/0.ts?DeviceId=TW96aWxsYS81LjAgKFdpbmRvd3MgTlQgMTAuMDsgV2luNjQ7IHg2NCkgQXBwbGVXZWJLaXQvNTM3LjM2IChLSFRNTCwgbGlrZSBHZWNrbykgQ2hyb21lLzcxLjAuMzU3OC45OCBTYWZhcmkvNTM3LjM2fDE1NDczNTExMjA1MDk1&MediaSourceId=a97fc04903d54fcbcbf02148b5044ce5&VideoCodec=h264&AudioCodec=mp3,aac&VideoBitrate=139680000&AudioBitrate=320000&PlaySessionId=840068ad6480494db3ed5e01c98ac83a&api_key=cc8d5fbb179346129ca3763bf2bf4e14&AudioStreamIndex=1&SubtitleStreamIndex=16&SubtitleMethod=Encode&TranscodingMaxAudioChannels=2&SegmentContainer=ts&MinSegments=1&BreakOnNonKeyFrames=True&ManifestSubtitles=vtt&h264-profile=high,main,baseline,constrainedbaseline,high10&h264-level=51&TranscodeReasons=SubtitleCodecNotSupported&allowVideoStreamCopy=false
  4. {"Protocol":"File","Id":"a97fc04903d54fcbcbf02148b5044ce5","Path":"E:\\Emby\\Emby\\Server Media\\TV Media\\Suits\\Season 1\\Suits S01E02.mkv","Type":"Default","Container":"mkv","Size":0,"Name":"Suits S01E02","IsRemote":false,"RunTimeTicks":25746339840,"ReadAtNativeFramerate":false,"DiscardCorruptPts":false,"FillWallClockDts":false,"IgnoreDts":false,"IgnoreIndex":false,"SupportsTranscoding":true,"SupportsDirectStream":true,"SupportsDirectPlay":true,"IsInfiniteStream":false,"RequiresOpening":false,"RequiresClosing":false,"RequiresLooping":false,"SupportsProbing":true,"MediaStreams":[{"Codec":"hevc","ColorTransfer":"bt709","ColorPrimaries":"bt709","ColorSpace":"bt709","TimeBase":"1/1000","CodecTimeBase":"1001/24000","VideoRange":"SDR","DisplayTitle":"1080p HEVC","IsInterlaced":false,"BitRate":3051583,"RefFrames":1,"IsDefault":true,"IsForced":false,"Height":1080,"Width":1920,"AverageFrameRate":23.9760246,"RealFrameRate":23.9760246,"Profile":"Main 10","Type":"Video","AspectRatio":"16:9","Index":0,"IsExternal":false,"IsTextSubtitleStream":false,"SupportsExternalStream":false,"PixelFormat":"yuv420p10le","Level":120},{"Codec":"aac","Language":"eng","TimeBase":"1/1000","CodecTimeBase":"1/48000","Title":"Surround","DisplayTitle":"Eng AAC 5.1 Default","IsInterlaced":false,"ChannelLayout":"5.1","BitRate":320000,"Channels":6,"SampleRate":48000,"IsDefault":true,"IsForced":false,"Profile":"LC","Type":"Audio","Index":1,"IsExternal":false,"IsTextSubtitleStream":false,"SupportsExternalStream":false,"Level":0},{"Codec":"subrip","Language":"eng","TimeBase":"1/1000","CodecTimeBase":"0/1","Title":"English","DisplayTitle":"Eng","IsInterlaced":false,"IsDefault":false,"IsForced":false,"Type":"Subtitle","Index":2,"IsExternal":false,"IsTextSubtitleStream":true,"SupportsExternalStream":true,"Level":0},{"Codec":"subrip","Language":"spa","TimeBase":"1/1000","CodecTimeBase":"0/1","Title":"Spanish","DisplayTitle":"Spa","IsInterlaced":false,"IsDefault":false,"IsForced":false,"Type":"Subtitle","Index":3,"IsExternal":false,"IsTextSubtitleStream":true,"SupportsExternalStream":true,"Level":0},{"Codec":"subrip","Language":"dan","TimeBase":"1/1000","CodecTimeBase":"0/1","Title":"Danish","DisplayTitle":"Dan","IsInterlaced":false,"IsDefault":false,"IsForced":false,"Type":"Subtitle","Index":4,"IsExternal":false,"IsTextSubtitleStream":true,"SupportsExternalStream":true,"Level":0},{"Codec":"subrip","Language":"ger","TimeBase":"1/1000","CodecTimeBase":"0/1","Title":"German","DisplayTitle":"Ger","IsInterlaced":false,"IsDefault":false,"IsForced":false,"Type":"Subtitle","Index":5,"IsExternal":false,"IsTextSubtitleStream":true,"SupportsExternalStream":true,"Level":0},{"Codec":"subrip","Language":"fre","TimeBase":"1/1000","CodecTimeBase":"0/1","Title":"French","DisplayTitle":"Fre","IsInterlaced":false,"IsDefault":false,"IsForced":false,"Type":"Subtitle","Index":6,"IsExternal":false,"IsTextSubtitleStream":true,"SupportsExternalStream":true,"Level":0},{"Codec":"subrip","Language":"ita","TimeBase":"1/1000","CodecTimeBase":"0/1","Title":"Italian","DisplayTitle":"Ita","IsInterlaced":false,"IsDefault":false,"IsForced":false,"Type":"Subtitle","Index":7,"IsExternal":false,"IsTextSubtitleStream":true,"SupportsExternalStream":true,"Level":0},{"Codec":"subrip","Language":"dut","TimeBase":"1/1000","CodecTimeBase":"0/1","Title":"Dutch","DisplayTitle":"Dut","IsInterlaced":false,"IsDefault":false,"IsForced":false,"Type":"Subtitle","Index":8,"IsExternal":false,"IsTextSubtitleStream":true,"SupportsExternalStream":true,"Level":0},{"Codec":"subrip","Language":"nor","TimeBase":"1/1000","CodecTimeBase":"0/1","Title":"Norwegian","DisplayTitle":"Nor","IsInterlaced":false,"IsDefault":false,"IsForced":false,"Type":"Subtitle","Index":9,"IsExternal":false,"IsTextSubtitleStream":true,"SupportsExternalStream":true,"Level":0},{"Codec":"subrip","Language":"fin","TimeBase":"1/1000","CodecTimeBase":"0/1","Title":"Finnish","DisplayTitle":"Fin","IsInterlaced":false,"IsDefault":false,"IsForced":false,"Type":"Subtitle","Index":10,"IsExternal":false,"IsTextSubtitleStream":true,"SupportsExternalStream":true,"Level":0},{"Codec":"subrip","Language":"swe","TimeBase":"1/1000","CodecTimeBase":"0/1","Title":"Swedish","DisplayTitle":"Swe","IsInterlaced":false,"IsDefault":false,"IsForced":false,"Type":"Subtitle","Index":11,"IsExternal":false,"IsTextSubtitleStream":true,"SupportsExternalStream":true,"Level":0},{"Codec":"subrip","Language":"spa","TimeBase":"1/1000","CodecTimeBase":"0/1","Title":"Spanish-Force","DisplayTitle":"Spa","IsInterlaced":false,"IsDefault":false,"IsForced":false,"Type":"Subtitle","Index":12,"IsExternal":false,"IsTextSubtitleStream":true,"SupportsExternalStream":true,"Level":0},{"Codec":"subrip","Language":"ger","TimeBase":"1/1000","CodecTimeBase":"0/1","Title":"German-Force","DisplayTitle":"Ger","IsInterlaced":false,"IsDefault":false,"IsForced":false,"Type":"Subtitle","Index":13,"IsExternal":false,"IsTextSubtitleStream":true,"SupportsExternalStream":true,"Level":0},{"Codec":"subrip","Language":"fre","TimeBase":"1/1000","CodecTimeBase":"0/1","Title":"French-Force","DisplayTitle":"Fre","IsInterlaced":false,"IsDefault":false,"IsForced":false,"Type":"Subtitle","Index":14,"IsExternal":false,"IsTextSubtitleStream":true,"SupportsExternalStream":true,"Level":0},{"Codec":"subrip","Language":"ita","TimeBase":"1/1000","CodecTimeBase":"0/1","Title":"Italian-Force","DisplayTitle":"Ita","IsInterlaced":false,"IsDefault":false,"IsForced":false,"Type":"Subtitle","Index":15,"IsExternal":false,"IsTextSubtitleStream":true,"SupportsExternalStream":true,"Level":0},{"Codec":"ass","Language":"ara","DisplayTitle":"Ara Default","IsInterlaced":false,"IsDefault":true,"IsForced":false,"Type":"Subtitle","Index":16,"IsExternal":true,"IsTextSubtitleStream":true,"SupportsExternalStream":true,"Path":"E:\\Emby\\Emby\\Server Media\\TV Media\\Suits\\Season 1\\Suits S01E02.ara.default.ass"}],"Formats":[],"Bitrate":3051583,"RequiredHttpHeaders":{}}
  5. User policy for iD7eeM: EnablePlaybackRemuxing: True EnableVideoPlaybackTranscoding: True EnableAudioPlaybackTranscoding: True
  6. Affected codecs:
  7. >>>>>> NVDEC GeForce RTX 2080 - H.265 (HEVC)
  8. Adapter #0: 'GeForce RTX 2080' ComputeCapability: 7.5
  9. Frame Sizes: 144x144...8192x8192 - Width Alignment: 2 - Height Alignment: 2
  10. Color Formats: CUDA, NV12, P010LE, P016LE
  11. Profiles: Main Profile (Level 1 (Main)), Main 10 Profile (Level 1 (Main))
  12. >>>>>> NVENC GeForce RTX 2080 - H.264 (AVC)
  13. Adapter #0: 'GeForce RTX 2080' ComputeCapability: 7.5
  14. Frame Sizes: max 4096x4096 - Width Alignment: 2 - Height Alignment: 2
  15. Color Formats: NV12, P010LE, CUDA, YUV420P
  16. Profiles: Baseline Profile (Level 5.1), Main Profile (Level 5.1), High Profile (Level 5.1), High 4:4:4 Profile (Level 5.1)
  17. >>>>>> FindVideoDecoder - MediaType: hevc, Mode: 1
  18. Info FindVideoDecoder - Checking: 'NVDEC GeForce RTX 2080 - H.265 (HEVC)' (Priority: 30)
  19. Info FindVideoDecoder - Check successful - selecting 'NVDEC GeForce RTX 2080 - H.265 (HEVC)'
  20. >>>>>> FindVideoEncoder - Media: h264, UseHardwareCodecs: True, Mode: 1
  21. Info FindVideoEncoder - Checking: 'NVENC GeForce RTX 2080 - H.264 (AVC)' (Priority: 30)
  22. Info Encoder supports input stream
  23. Info FindVideoEncoder - Check successful - selecting 'NVENC GeForce RTX 2080 - H.264 (AVC)'
  24. >>>>>> FindVideoDecoder - MediaType: hevc, Mode: 1
  25. Info FindVideoDecoder - Checking: 'NVDEC GeForce RTX 2080 - H.265 (HEVC)' (Priority: 30)
  26. Info FindVideoDecoder - Check successful - selecting 'NVDEC GeForce RTX 2080 - H.265 (HEVC)'
  27. >>>>>> FindVideoEncoder - Media: h264, UseHardwareCodecs: True, Mode: 1
  28. Info FindVideoEncoder - Checking: 'NVENC GeForce RTX 2080 - H.264 (AVC)' (Priority: 30)
  29. Info Encoder supports input stream
  30. Info FindVideoEncoder - Check successful - selecting 'NVENC GeForce RTX 2080 - H.264 (AVC)'
  31. C:\Users\Gaming\Desktop\embyserver-win-x64-3.5.3.0\system\ffmpeg.exe -c:v hevc_cuvid -resize 1920x1080 -f matroska -i file:"E:\Emby\Emby\Server Media\TV Media\Suits\Season 1\Suits S01E02.mkv" -threads 0 -map 0:0 -map 0:1 -c:v:0 h264_nvenc -copyts -filter_complex "[0:0]subtitles=filename='E\:/Emby/Emby/Server Media/TV Media/Suits/Season 1/Suits S01E02.ara.default.ass':charenc=utf-8:force_style='FontName=Droid Sans Fallback':fontsdir='C\:/Users/Gaming/Desktop/embyserver-win-x64-3.5.3.0/programdata/fonts'" -pix_fmt yuv420p -b:v:0 6103166 -maxrate 6103166 -bufsize 12206332 -profile high -forced-idr 1 -force_key_frames "expr:if(isnan(prev_forced_t),eq(t,t),gte(t,prev_forced_t+3))" -vsync -1 -codec:a:0 copy -metadata:s:a:0 language=eng -disposition:a:0 default -f segment -max_delay 5000000 -avoid_negative_ts disabled -map_metadata -1 -map_chapters -1 -start_at_zero -segment_time 3 -individual_header_trailer 0 -segment_format mpegts -segment_list_type m3u8 -segment_start_number 0 -segment_list "C:\Users\Gaming\Desktop\embyserver-win-x64-3.5.3.0\programdata\transcoding-temp\9f8d81fca3a659eabb36bfab6b289195.m3u8" -y "C:\Users\Gaming\Desktop\embyserver-win-x64-3.5.3.0\programdata\transcoding-temp\9f8d81fca3a659eabb36bfab6b289195%d.ts"
  32. ffmpeg version 4.0.2-emby_2018_12_09-g5abbb1430d+238 Copyright (c) 2000-2018 the FFmpeg developers
  33. built with gcc 8.2.1 (Rev1, Built by MSYS2 project) 20181207
  34. configuration: --disable-autodetect --enable-amf --enable-bzlib --enable-cuda --enable-cuvid --enable-d3d11va --enable-dxva2 --enable-iconv --enable-lzma --enable-nvenc --enable-zlib --enable-sdl2 --disable-debug --enable-ffnvcodec --enable-nvdec --enable-gmp --enable-libmp3lame --enable-libopus --enable-libvorbis --enable-libvpx --enable-libx264 --enable-fontconfig --enable-libass --enable-libbluray --enable-libfreetype --enable-libmfx --enable-libmysofa --enable-libopencore-amrnb --enable-libopencore-amrwb --enable-libopenjpeg --enable-libsnappy --enable-libsoxr --enable-libspeex --enable-libtheora --enable-libtwolame --enable-libvidstab --enable-libvo-amrwbenc --enable-libwavpack --enable-libwebp --enable-libxml2 --enable-libzimg --enable-libshine --enable-gpl --enable-avisynth --enable-libxvid --enable-libaom --enable-version3 --enable-libzvbi --enable-gnutls --extra-cflags=-DLIBTWOLAME_STATIC --extra-libs=-lstdc++ --extra-cflags=-DLIBXML_STATIC --extra-libs=-liconv
  35. libavutil 56. 14.100 / 56. 14.100
  36. libavcodec 58. 18.100 / 58. 18.100
  37. libavformat 58. 12.100 / 58. 12.100
  38. libavdevice 58. 3.100 / 58. 3.100
  39. libavfilter 7. 16.100 / 7. 16.100
  40. libswscale 5. 1.100 / 5. 1.100
  41. libswresample 3. 1.100 / 3. 1.100
  42. libpostproc 55. 1.100 / 55. 1.100
  43. Input #0, matroska,webm, from 'file:E:\Emby\Emby\Server Media\TV Media\Suits\Season 1\Suits S01E02.mkv':
  44. Metadata:
  45. CREATION_TIME : 2016-05-23T01:06:57Z
  46. ENCODER : Lavf56.1.0
  47. Duration: 00:42:54.63, start: 0.000000, bitrate: 3051 kb/s
  48. Chapter #0:0: start 0.000000, end 291.917000
  49. Metadata:
  50. title : Chapter 1
  51. Chapter #0:1: start 291.917000, end 860.360000
  52. Metadata:
  53. title : Chapter 2
  54. Chapter #0:2: start 860.360000, end 1455.746000
  55. Metadata:
  56. title : Chapter 3
  57. Chapter #0:3: start 1455.746000, end 1847.929000
  58. Metadata:
  59. title : Chapter 4
  60. Chapter #0:4: start 1847.929000, end 2158.907000
  61. Metadata:
  62. title : Chapter 5
  63. Chapter #0:5: start 2158.907000, end 2542.999000
  64. Metadata:
  65. title : Chapter 6
  66. Chapter #0:6: start 2542.999000, end 2574.447000
  67. Metadata:
  68. title : Chapter 7
  69. Stream #0:0: Video: hevc (Main 10), yuv420p10le(tv, bt709), 1920x1080 [SAR 1:1 DAR 16:9], 23.98 fps, 23.98 tbr, 1k tbn, 23.98 tbc (default)
  70. Metadata:
  71. BPS : 2600359
  72. BPS-eng : 2600359
  73. DURATION : 00:42:54.489000000
  74. DURATION-eng : 00:42:54.489000000
  75. NUMBER_OF_FRAMES: 61726
  76. NUMBER_OF_FRAMES-eng: 61726
  77. NUMBER_OF_BYTES : 836824580
  78. NUMBER_OF_BYTES-eng: 836824580
  79. _STATISTICS_WRITING_APP: mkvmerge v9.2.0 ('Photograph') 64bit
  80. _STATISTICS_WRITING_APP-eng: mkvmerge v9.2.0 ('Photograph') 64bit
  81. _STATISTICS_WRITING_DATE_UTC: 2016-06-03 02:53:54
  82. _STATISTICS_WRITING_DATE_UTC-eng: 2016-06-03 02:53:54
  83. _STATISTICS_TAGS: BPS DURATION NUMBER_OF_FRAMES NUMBER_OF_BYTES
  84. _STATISTICS_TAGS-eng: BPS DURATION NUMBER_OF_FRAMES NUMBER_OF_BYTES
  85. Stream #0:1(eng): Audio: aac (LC), 48000 Hz, 5.1, fltp (default)
  86. Metadata:
  87. title : Surround
  88. BPS : 447578
  89. BPS-eng : 447578
  90. DURATION : 00:42:54.634000000
  91. DURATION-eng : 00:42:54.634000000
  92. NUMBER_OF_FRAMES: 120686
  93. NUMBER_OF_FRAMES-eng: 120686
  94. NUMBER_OF_BYTES : 144043755
  95. NUMBER_OF_BYTES-eng: 144043755
  96. _STATISTICS_WRITING_APP: mkvmerge v9.2.0 ('Photograph') 64bit
  97. _STATISTICS_WRITING_APP-eng: mkvmerge v9.2.0 ('Photograph') 64bit
  98. _STATISTICS_WRITING_DATE_UTC: 2016-06-03 02:53:54
  99. _STATISTICS_WRITING_DATE_UTC-eng: 2016-06-03 02:53:54
  100. _STATISTICS_TAGS: BPS DURATION NUMBER_OF_FRAMES NUMBER_OF_BYTES
  101. _STATISTICS_TAGS-eng: BPS DURATION NUMBER_OF_FRAMES NUMBER_OF_BYTES
  102. Stream #0:2(eng): Subtitle: subrip
  103. Metadata:
  104. title : English
  105. BPS : 99
  106. BPS-eng : 99
  107. DURATION : 00:42:01.728000000
  108. DURATION-eng : 00:42:01.728000000
  109. NUMBER_OF_FRAMES: 869
  110. NUMBER_OF_FRAMES-eng: 869
  111. NUMBER_OF_BYTES : 31492
  112. NUMBER_OF_BYTES-eng: 31492
  113. _STATISTICS_WRITING_APP: mkvmerge v9.2.0 ('Photograph') 64bit
  114. _STATISTICS_WRITING_APP-eng: mkvmerge v9.2.0 ('Photograph') 64bit
  115. _STATISTICS_WRITING_DATE_UTC: 2016-06-03 02:53:54
  116. _STATISTICS_WRITING_DATE_UTC-eng: 2016-06-03 02:53:54
  117. _STATISTICS_TAGS: BPS DURATION NUMBER_OF_FRAMES NUMBER_OF_BYTES
  118. _STATISTICS_TAGS-eng: BPS DURATION NUMBER_OF_FRAMES NUMBER_OF_BYTES
  119. Stream #0:3(spa): Subtitle: subrip
  120. Metadata:
  121. title : Spanish
  122. BPS : 81
  123. BPS-eng : 81
  124. DURATION : 00:41:54.387000000
  125. DURATION-eng : 00:41:54.387000000
  126. NUMBER_OF_FRAMES: 569
  127. NUMBER_OF_FRAMES-eng: 569
  128. NUMBER_OF_BYTES : 25740
  129. NUMBER_OF_BYTES-eng: 25740
  130. _STATISTICS_WRITING_APP: mkvmerge v9.2.0 ('Photograph') 64bit
  131. _STATISTICS_WRITING_APP-eng: mkvmerge v9.2.0 ('Photograph') 64bit
  132. _STATISTICS_WRITING_DATE_UTC: 2016-06-03 02:53:54
  133. _STATISTICS_WRITING_DATE_UTC-eng: 2016-06-03 02:53:54
  134. _STATISTICS_TAGS: BPS DURATION NUMBER_OF_FRAMES NUMBER_OF_BYTES
  135. _STATISTICS_TAGS-eng: BPS DURATION NUMBER_OF_FRAMES NUMBER_OF_BYTES
  136. Stream #0:4(dan): Subtitle: subrip
  137. Metadata:
  138. title : Danish
  139. BPS : 59
  140. BPS-eng : 59
  141. DURATION : 00:41:54.887000000
  142. DURATION-eng : 00:41:54.887000000
  143. NUMBER_OF_FRAMES: 410
  144. NUMBER_OF_FRAMES-eng: 410
  145. NUMBER_OF_BYTES : 18801
  146. NUMBER_OF_BYTES-eng: 18801
  147. _STATISTICS_WRITING_APP: mkvmerge v9.2.0 ('Photograph') 64bit
  148. _STATISTICS_WRITING_APP-eng: mkvmerge v9.2.0 ('Photograph') 64bit
  149. _STATISTICS_WRITING_DATE_UTC: 2016-06-03 02:53:54
  150. _STATISTICS_WRITING_DATE_UTC-eng: 2016-06-03 02:53:54
  151. _STATISTICS_TAGS: BPS DURATION NUMBER_OF_FRAMES NUMBER_OF_BYTES
  152. _STATISTICS_TAGS-eng: BPS DURATION NUMBER_OF_FRAMES NUMBER_OF_BYTES
  153. Stream #0:5(ger): Subtitle: subrip
  154. Metadata:
  155. title : German
  156. BPS : 100
  157. BPS-eng : 100
  158. DURATION : 00:41:54.429000000
  159. DURATION-eng : 00:41:54.429000000
  160. NUMBER_OF_FRAMES: 744
  161. NUMBER_OF_FRAMES-eng: 744
  162. NUMBER_OF_BYTES : 31719
  163. NUMBER_OF_BYTES-eng: 31719
  164. _STATISTICS_WRITING_APP: mkvmerge v9.2.0 ('Photograph') 64bit
  165. _STATISTICS_WRITING_APP-eng: mkvmerge v9.2.0 ('Photograph') 64bit
  166. _STATISTICS_WRITING_DATE_UTC: 2016-06-03 02:53:54
  167. _STATISTICS_WRITING_DATE_UTC-eng: 2016-06-03 02:53:54
  168. _STATISTICS_TAGS: BPS DURATION NUMBER_OF_FRAMES NUMBER_OF_BYTES
  169. _STATISTICS_TAGS-eng: BPS DURATION NUMBER_OF_FRAMES NUMBER_OF_BYTES
  170. Stream #0:6(fre): Subtitle: subrip
  171. Metadata:
  172. title : French
  173. BPS : 86
  174. BPS-eng : 86
  175. DURATION : 00:41:54.387000000
  176. DURATION-eng : 00:41:54.387000000
  177. NUMBER_OF_FRAMES: 569
  178. NUMBER_OF_FRAMES-eng: 569
  179. NUMBER_OF_BYTES : 27149
  180. NUMBER_OF_BYTES-eng: 27149
  181. _STATISTICS_WRITING_APP: mkvmerge v9.2.0 ('Photograph') 64bit
  182. _STATISTICS_WRITING_APP-eng: mkvmerge v9.2.0 ('Photograph') 64bit
  183. _STATISTICS_WRITING_DATE_UTC: 2016-06-03 02:53:54
  184. _STATISTICS_WRITING_DATE_UTC-eng: 2016-06-03 02:53:54
  185. _STATISTICS_TAGS: BPS DURATION NUMBER_OF_FRAMES NUMBER_OF_BYTES
  186. _STATISTICS_TAGS-eng: BPS DURATION NUMBER_OF_FRAMES NUMBER_OF_BYTES
  187. Stream #0:7(ita): Subtitle: subrip
  188. Metadata:
  189. title : Italian
  190. BPS : 72
  191. BPS-eng : 72
  192. DURATION : 00:41:54.387000000
  193. DURATION-eng : 00:41:54.387000000
  194. NUMBER_OF_FRAMES: 568
  195. NUMBER_OF_FRAMES-eng: 568
  196. NUMBER_OF_BYTES : 22817
  197. NUMBER_OF_BYTES-eng: 22817
  198. _STATISTICS_WRITING_APP: mkvmerge v9.2.0 ('Photograph') 64bit
  199. _STATISTICS_WRITING_APP-eng: mkvmerge v9.2.0 ('Photograph') 64bit
  200. _STATISTICS_WRITING_DATE_UTC: 2016-06-03 02:53:54
  201. _STATISTICS_WRITING_DATE_UTC-eng: 2016-06-03 02:53:54
  202. _STATISTICS_TAGS: BPS DURATION NUMBER_OF_FRAMES NUMBER_OF_BYTES
  203. _STATISTICS_TAGS-eng: BPS DURATION NUMBER_OF_FRAMES NUMBER_OF_BYTES
  204. Stream #0:8(dut): Subtitle: subrip
  205. Metadata:
  206. title : Dutch
  207. BPS : 72
  208. BPS-eng : 72
  209. DURATION : 00:42:18.703000000
  210. DURATION-eng : 00:42:18.703000000
  211. NUMBER_OF_FRAMES: 490
  212. NUMBER_OF_FRAMES-eng: 490
  213. NUMBER_OF_BYTES : 23130
  214. NUMBER_OF_BYTES-eng: 23130
  215. _STATISTICS_WRITING_APP: mkvmerge v9.2.0 ('Photograph') 64bit
  216. _STATISTICS_WRITING_APP-eng: mkvmerge v9.2.0 ('Photograph') 64bit
  217. _STATISTICS_WRITING_DATE_UTC: 2016-06-03 02:53:54
  218. _STATISTICS_WRITING_DATE_UTC-eng: 2016-06-03 02:53:54
  219. _STATISTICS_TAGS: BPS DURATION NUMBER_OF_FRAMES NUMBER_OF_BYTES
  220. _STATISTICS_TAGS-eng: BPS DURATION NUMBER_OF_FRAMES NUMBER_OF_BYTES
  221. Stream #0:9(nor): Subtitle: subrip
  222. Metadata:
  223. title : Norwegian
  224. BPS : 59
  225. BPS-eng : 59
  226. DURATION : 00:41:55.931000000
  227. DURATION-eng : 00:41:55.931000000
  228. NUMBER_OF_FRAMES: 392
  229. NUMBER_OF_FRAMES-eng: 392
  230. NUMBER_OF_BYTES : 18626
  231. NUMBER_OF_BYTES-eng: 18626
  232. _STATISTICS_WRITING_APP: mkvmerge v9.2.0 ('Photograph') 64bit
  233. _STATISTICS_WRITING_APP-eng: mkvmerge v9.2.0 ('Photograph') 64bit
  234. _STATISTICS_WRITING_DATE_UTC: 2016-06-03 02:53:54
  235. _STATISTICS_WRITING_DATE_UTC-eng: 2016-06-03 02:53:54
  236. _STATISTICS_TAGS: BPS DURATION NUMBER_OF_FRAMES NUMBER_OF_BYTES
  237. _STATISTICS_TAGS-eng: BPS DURATION NUMBER_OF_FRAMES NUMBER_OF_BYTES
  238. Stream #0:10(fin): Subtitle: subrip
  239. Metadata:
  240. title : Finnish
  241. BPS : 62
  242. BPS-eng : 62
  243. DURATION : 00:41:54.930000000
  244. DURATION-eng : 00:41:54.930000000
  245. NUMBER_OF_FRAMES: 416
  246. NUMBER_OF_FRAMES-eng: 416
  247. NUMBER_OF_BYTES : 19683
  248. NUMBER_OF_BYTES-eng: 19683
  249. _STATISTICS_WRITING_APP: mkvmerge v9.2.0 ('Photograph') 64bit
  250. _STATISTICS_WRITING_APP-eng: mkvmerge v9.2.0 ('Photograph') 64bit
  251. _STATISTICS_WRITING_DATE_UTC: 2016-06-03 02:53:54
  252. _STATISTICS_WRITING_DATE_UTC-eng: 2016-06-03 02:53:54
  253. _STATISTICS_TAGS: BPS DURATION NUMBER_OF_FRAMES NUMBER_OF_BYTES
  254. _STATISTICS_TAGS-eng: BPS DURATION NUMBER_OF_FRAMES NUMBER_OF_BYTES
  255. Stream #0:11(swe): Subtitle: subrip
  256. Metadata:
  257. title : Swedish
  258. BPS : 61
  259. BPS-eng : 61
  260. DURATION : 00:41:55.013000000
  261. DURATION-eng : 00:41:55.013000000
  262. NUMBER_OF_FRAMES: 392
  263. NUMBER_OF_FRAMES-eng: 392
  264. NUMBER_OF_BYTES : 19270
  265. NUMBER_OF_BYTES-eng: 19270
  266. _STATISTICS_WRITING_APP: mkvmerge v9.2.0 ('Photograph') 64bit
  267. _STATISTICS_WRITING_APP-eng: mkvmerge v9.2.0 ('Photograph') 64bit
  268. _STATISTICS_WRITING_DATE_UTC: 2016-06-03 02:53:54
  269. _STATISTICS_WRITING_DATE_UTC-eng: 2016-06-03 02:53:54
  270. _STATISTICS_TAGS: BPS DURATION NUMBER_OF_FRAMES NUMBER_OF_BYTES
  271. _STATISTICS_TAGS-eng: BPS DURATION NUMBER_OF_FRAMES NUMBER_OF_BYTES
  272. Stream #0:12(spa): Subtitle: subrip
  273. Metadata:
  274. title : Spanish-Force
  275. BPS : 70
  276. BPS-eng : 70
  277. DURATION : 00:00:02.168000000
  278. DURATION-eng : 00:00:02.168000000
  279. NUMBER_OF_FRAMES: 1
  280. NUMBER_OF_FRAMES-eng: 1
  281. NUMBER_OF_BYTES : 19
  282. NUMBER_OF_BYTES-eng: 19
  283. _STATISTICS_WRITING_APP: mkvmerge v9.2.0 ('Photograph') 64bit
  284. _STATISTICS_WRITING_APP-eng: mkvmerge v9.2.0 ('Photograph') 64bit
  285. _STATISTICS_WRITING_DATE_UTC: 2016-06-03 02:53:54
  286. _STATISTICS_WRITING_DATE_UTC-eng: 2016-06-03 02:53:54
  287. _STATISTICS_TAGS: BPS DURATION NUMBER_OF_FRAMES NUMBER_OF_BYTES
  288. _STATISTICS_TAGS-eng: BPS DURATION NUMBER_OF_FRAMES NUMBER_OF_BYTES
  289. Stream #0:13(ger): Subtitle: subrip
  290. Metadata:
  291. title : German-Force
  292. BPS : 0
  293. BPS-eng : 0
  294. DURATION : 00:07:25.862000000
  295. DURATION-eng : 00:07:25.862000000
  296. NUMBER_OF_FRAMES: 2
  297. NUMBER_OF_FRAMES-eng: 2
  298. NUMBER_OF_BYTES : 47
  299. NUMBER_OF_BYTES-eng: 47
  300. _STATISTICS_WRITING_APP: mkvmerge v9.2.0 ('Photograph') 64bit
  301. _STATISTICS_WRITING_APP-eng: mkvmerge v9.2.0 ('Photograph') 64bit
  302. _STATISTICS_WRITING_DATE_UTC: 2016-06-03 02:53:54
  303. _STATISTICS_WRITING_DATE_UTC-eng: 2016-06-03 02:53:54
  304. _STATISTICS_TAGS: BPS DURATION NUMBER_OF_FRAMES NUMBER_OF_BYTES
  305. _STATISTICS_TAGS-eng: BPS DURATION NUMBER_OF_FRAMES NUMBER_OF_BYTES
  306. Stream #0:14(fre): Subtitle: subrip
  307. Metadata:
  308. title : French-Force
  309. BPS : 99
  310. BPS-eng : 99
  311. DURATION : 00:00:02.085000000
  312. DURATION-eng : 00:00:02.085000000
  313. NUMBER_OF_FRAMES: 1
  314. NUMBER_OF_FRAMES-eng: 1
  315. NUMBER_OF_BYTES : 26
  316. NUMBER_OF_BYTES-eng: 26
  317. _STATISTICS_WRITING_APP: mkvmerge v9.2.0 ('Photograph') 64bit
  318. _STATISTICS_WRITING_APP-eng: mkvmerge v9.2.0 ('Photograph') 64bit
  319. _STATISTICS_WRITING_DATE_UTC: 2016-06-03 02:53:54
  320. _STATISTICS_WRITING_DATE_UTC-eng: 2016-06-03 02:53:54
  321. _STATISTICS_TAGS: BPS DURATION NUMBER_OF_FRAMES NUMBER_OF_BYTES
  322. _STATISTICS_TAGS-eng: BPS DURATION NUMBER_OF_FRAMES NUMBER_OF_BYTES
  323. Stream #0:15(ita): Subtitle: subrip
  324. Metadata:
  325. title : Italian-Force
  326. BPS : 79
  327. BPS-eng : 79
  328. DURATION : 00:00:01.919000000
  329. DURATION-eng : 00:00:01.919000000
  330. NUMBER_OF_FRAMES: 1
  331. NUMBER_OF_FRAMES-eng: 1
  332. NUMBER_OF_BYTES : 19
  333. NUMBER_OF_BYTES-eng: 19
  334. _STATISTICS_WRITING_APP: mkvmerge v9.2.0 ('Photograph') 64bit
  335. _STATISTICS_WRITING_APP-eng: mkvmerge v9.2.0 ('Photograph') 64bit
  336. _STATISTICS_WRITING_DATE_UTC: 2016-06-03 02:53:54
  337. _STATISTICS_WRITING_DATE_UTC-eng: 2016-06-03 02:53:54
  338. _STATISTICS_TAGS: BPS DURATION NUMBER_OF_FRAMES NUMBER_OF_BYTES
  339. _STATISTICS_TAGS-eng: BPS DURATION NUMBER_OF_FRAMES NUMBER_OF_BYTES
  340. [Parsed_subtitles_0 @ 000001e1a5d63fc0] Shaper: FriBidi 1.0.5 (SIMPLE) HarfBuzz-ng 2.0.2 (COMPLEX)
  341. [Parsed_subtitles_0 @ 000001e1a5d63fc0] Loading font file 'C:/Users/Gaming/Desktop/embyserver-win-x64-3.5.3.0/programdata/fonts/DroidSansFallback.ttf'
  342. [Parsed_subtitles_0 @ 000001e1a5d63fc0] Using font provider directwrite
  343. Please use -profile:a or -profile:v, -profile is ambiguous
  344. Stream mapping:
  345. Stream #0:0 (hevc_cuvid) -> subtitles
  346. subtitles -> Stream #0:0 (h264_nvenc)
  347. Stream #0:1 -> #0:1 (copy)
  348. Press [q] to stop, [?] for help
  349. [Parsed_subtitles_0 @ 000001e1a6444440] Shaper: FriBidi 1.0.5 (SIMPLE) HarfBuzz-ng 2.0.2 (COMPLEX)
  350. [Parsed_subtitles_0 @ 000001e1a6444440] Loading font file 'C:/Users/Gaming/Desktop/embyserver-win-x64-3.5.3.0/programdata/fonts/DroidSansFallback.ttf'
  351. [Parsed_subtitles_0 @ 000001e1a6444440] Using font provider directwrite
  352. [Parsed_subtitles_0 @ 000001e1a6444440] Neither PlayResX nor PlayResY defined. Assuming 384x288
  353. [segment @ 000001e1a5d58f80] Opening 'C:\Users\Gaming\Desktop\embyserver-win-x64-3.5.3.0\programdata\transcoding-temp\9f8d81fca3a659eabb36bfab6b2891950.ts' for writing
  354. Output #0, segment, to 'C:\Users\Gaming\Desktop\embyserver-win-x64-3.5.3.0\programdata\transcoding-temp\9f8d81fca3a659eabb36bfab6b289195%d.ts':
  355. Metadata:
  356. encoder : Lavf58.12.100
  357. Stream #0:0: Video: h264 (h264_nvenc) (High), yuv420p, 1920x1080 [SAR 1:1 DAR 16:9], q=-1--1, 6103 kb/s, 23.98 fps, 90k tbn, 23.98 tbc (default)
  358. Metadata:
  359. encoder : Lavc58.18.100 h264_nvenc
  360. Side data:
  361. cpb: bitrate max/min/avg: 6103166/0/6103166 buffer size: 12206332 vbv_delay: -1
  362. Stream #0:1(eng): Audio: aac (LC), 48000 Hz, 5.1, fltp (default)
  363. frame= 61 fps=0.0 q=16.0 size=N/A time=00:00:02.87 bitrate=N/A speed=5.74x
  364. [segment @ 000001e1a5d58f80] Opening 'C:\Users\Gaming\Desktop\embyserver-win-x64-3.5.3.0\programdata\transcoding-temp\9f8d81fca3a659eabb36bfab6b289195.m3u8.tmp' for writing
  365. [segment @ 000001e1a5d58f80] Opening 'C:\Users\Gaming\Desktop\embyserver-win-x64-3.5.3.0\programdata\transcoding-temp\9f8d81fca3a659eabb36bfab6b2891951.ts' for writing
  366. frame= 143 fps=142 q=22.0 size=N/A time=00:00:06.22 bitrate=N/A speed= 6.2x
  367. [segment @ 000001e1a5d58f80] Opening 'C:\Users\Gaming\Desktop\embyserver-win-x64-3.5.3.0\programdata\transcoding-temp\9f8d81fca3a659eabb36bfab6b289195.m3u8.tmp' for writing
  368. [segment @ 000001e1a5d58f80] Opening 'C:\Users\Gaming\Desktop\embyserver-win-x64-3.5.3.0\programdata\transcoding-temp\9f8d81fca3a659eabb36bfab6b2891952.ts' for writing
  369. [segment @ 000001e1a5d58f80] Opening 'C:\Users\Gaming\Desktop\embyserver-win-x64-3.5.3.0\programdata\transcoding-temp\9f8d81fca3a659eabb36bfab6b289195.m3u8.tmp' for writing
  370. [segment @ 000001e1a5d58f80] Opening 'C:\Users\Gaming\Desktop\embyserver-win-x64-3.5.3.0\programdata\transcoding-temp\9f8d81fca3a659eabb36bfab6b2891953.ts' for writing
  371. frame= 236 fps=156 q=16.0 size=N/A time=00:00:10.15 bitrate=N/A speed=6.72x
  372. [segment @ 000001e1a5d58f80] Opening 'C:\Users\Gaming\Desktop\embyserver-win-x64-3.5.3.0\programdata\transcoding-temp\9f8d81fca3a659eabb36bfab6b289195.m3u8.tmp' for writing
  373. [segment @ 000001e1a5d58f80] Opening 'C:\Users\Gaming\Desktop\embyserver-win-x64-3.5.3.0\programdata\transcoding-temp\9f8d81fca3a659eabb36bfab6b2891954.ts' for writing
  374. [Parsed_subtitles_0 @ 000001e1a6444440] fontselect: (Droid Sans Fallback, 400, 0) -> DroidSansFallback, 0, DroidSansFallback
  375. [Parsed_subtitles_0 @ 000001e1a6444440] fontselect: (Bahij Droid Naskh, 400, 0) -> BahijDroidNaskh-Regular, 0, BahijDroidNaskh-Regular
  376. frame= 320 fps=158 q=21.0 size=N/A time=00:00:13.75 bitrate=N/A speed=6.81x
  377. [segment @ 000001e1a5d58f80] Opening 'C:\Users\Gaming\Desktop\embyserver-win-x64-3.5.3.0\programdata\transcoding-temp\9f8d81fca3a659eabb36bfab6b289195.m3u8.tmp' for writing
  378. [segment @ 000001e1a5d58f80] Opening 'C:\Users\Gaming\Desktop\embyserver-win-x64-3.5.3.0\programdata\transcoding-temp\9f8d81fca3a659eabb36bfab6b2891955.ts' for writing
  379. [segment @ 000001e1a5d58f80] Opening 'C:\Users\Gaming\Desktop\embyserver-win-x64-3.5.3.0\programdata\transcoding-temp\9f8d81fca3a659eabb36bfab6b289195.m3u8.tmp' for writing
  380. frame= 368 fps=156 q=20.0 Lsize=N/A time=00:00:15.63 bitrate=N/A speed=6.64x
  381. video:11018kB audio:832kB subtitle:0kB other streams:0kB global headers:0kB muxing overhead: unknown

ffmpeg

Comments powered by Disqus