1. greetings to ARIO MKVTONY NATASHA IN HOLLAND LOETING IN BELGUIM CARLINE IN VIRGINIA GRAPES IN LONDON AND FRIENDS OF MINE!!!!
  2. links dead visit http://scene-rls.net/ for trusted downloads
  3. come and say hello in chatroom
  4. https://scene-release.ishoutbox.com/
  5. dddd=dont dare download dat
  6. i dont do h265 encodes no more unless it is a big title from hollywood h265 movies freezes up and breaks up while playing it on videolan vlc isnt ready for it yet :(
  7. General
  8. Complete name : C:\Users\ddddrelease\Desktop\America.The.Motion.Picture.2021.720p.WEB.H264-NAISU.mp4
  9. Format : MPEG-4
  10. Format profile : Base Media
  11. Codec ID : isom (isom/iso2/avc1/mp41)
  12. File size : 707 MiB
  13. Duration : 1 h 38 min
  14. Overall bit rate mode : Variable
  15. Overall bit rate : 1 008 kb/s
  16. Movie name : ddddrelease rlsbb.ru
  17. Album : ddddrelease rlsbb.ru
  18. Album/Performer : ddddrelease rlsbb.ru
  19. Performer : ddddrelease rlsbb.ru
  20. Composer : ddddrelease rlsbb.ru
  21. Writing application : Lavf58.12.100
  22. Comment : ddddrelease rlsbb.ru
  23. Video
  24. ID : 1
  25. Format : AVC
  26. Format/Info : Advanced Video Codec
  27. Format profile : [email protected]
  28. Format settings : CABAC / 1 Ref Frames
  29. Format settings, CABAC : Yes
  30. Format settings, Reference frames : 1 frame
  31. Format settings, GOP : M=1, N=25
  32. Codec ID : avc1
  33. Codec ID/Info : Advanced Video Coding
  34. Duration : 1 h 38 min
  35. Bit rate mode : Constant
  36. Bit rate : 512 kb/s
  37. Width : 720 pixels
  38. Height : 480 pixels
  39. Display aspect ratio : 3:2
  40. Frame rate mode : Variable
  41. Frame rate : 24.000 FPS
  42. Minimum frame rate : 23.814 FPS
  43. Maximum frame rate : 491.520 FPS
  44. Color space : YUV
  45. Chroma subsampling : 4:2:0
  46. Bit depth : 8 bits
  47. Scan type : Progressive
  48. Bits/(Pixel*Frame) : 0.062
  49. Stream size : 359 MiB (51%)
  50. Codec configuration box : avcC
  51. Audio
  52. ID : 2
  53. Format : AAC LC
  54. Format/Info : Advanced Audio Codec Low Complexity
  55. Codec ID : mp4a-40-2
  56. Duration : 1 h 38 min
  57. Bit rate mode : Variable
  58. Bit rate : 491 kb/s
  59. Maximum bit rate : 576 kb/s
  60. Channel(s) : 6 channels
  61. Channel layout : C L R Ls Rs LFE
  62. Sampling rate : 48.0 kHz
  63. Frame rate : 46.875 FPS (1024 SPF)
  64. Compression mode : Lossy
  65. Stream size : 344 MiB (49%)
  66. Language : English
  67. Default : Yes
  68. Alternate group : 1
Comments powered by Disqus