1. greetings to ARIO MKVTONY NATASHA IN HOLLAND LOETING IN BELGUIM CARLINE IN VIRGINIA GRAPES IN LONDON AND FRIENDS OF MINE!!!!
  2. links dead visit http://scene-rls.net/ for trusted downloads
  3. come and say hello in chatroom
  4. https://scene-release.ishoutbox.com/
  5. dddd=dont dare download dat
  6. General
  7. Complete name : C:\Users\ddddrelease\Desktop\A.Love.To.Remember.2021.720p.AMZN.WEB-DL.DDP2.0.H.264-TEPES.mp4
  8. Format : MPEG-4
  9. Format profile : Base Media
  10. Codec ID : isom (isom/iso2/avc1/mp41)
  11. File size : 360 MiB
  12. Duration : 1 h 28 min
  13. Overall bit rate mode : Constant
  14. Overall bit rate : 568 kb/s
  15. Movie name : ddddrelease rlsbb.ru
  16. Album : ddddrelease rlsbb.ru
  17. Album/Performer : ddddrelease rlsbb.ru
  18. Performer : ddddrelease rlsbb.ru
  19. Composer : ddddrelease rlsbb.ru
  20. Writing application : Lavf58.12.100
  21. Comment : ddddrelease rlsbb.ru
  22. Video
  23. ID : 1
  24. Format : AVC
  25. Format/Info : Advanced Video Codec
  26. Format profile : [email protected]
  27. Format settings : CABAC / 1 Ref Frames
  28. Format settings, CABAC : Yes
  29. Format settings, Reference frames : 1 frame
  30. Format settings, GOP : M=1, N=25
  31. Codec ID : avc1
  32. Codec ID/Info : Advanced Video Coding
  33. Duration : 1 h 28 min
  34. Bit rate mode : Constant
  35. Bit rate : 463 kb/s
  36. Width : 720 pixels
  37. Height : 480 pixels
  38. Display aspect ratio : 3:2
  39. Frame rate mode : Variable
  40. Frame rate : 23.976 (24000/1001) FPS
  41. Minimum frame rate : 12.048 FPS
  42. Maximum frame rate : 104.348 FPS
  43. Color space : YUV
  44. Chroma subsampling : 4:2:0
  45. Bit depth : 8 bits
  46. Scan type : Progressive
  47. Bits/(Pixel*Frame) : 0.056
  48. Stream size : 294 MiB (82%)
  49. Codec configuration box : avcC
  50. Audio
  51. ID : 2
  52. Format : AAC LC
  53. Format/Info : Advanced Audio Codec Low Complexity
  54. Codec ID : mp4a-40-2
  55. Duration : 1 h 28 min
  56. Bit rate mode : Constant
  57. Bit rate : 99.7 kb/s
  58. Channel(s) : 2 channels
  59. Channel layout : L R
  60. Sampling rate : 48.0 kHz
  61. Frame rate : 46.875 FPS (1024 SPF)
  62. Compression mode : Lossy
  63. Stream size : 63.2 MiB (18%)
  64. Language : English
  65. Default : Yes
  66. Alternate group : 1
Comments powered by Disqus