1. General
  2. Unique ID : 236223587362178922172333158847029842470 (0xB1B7020F6098CEC9AAD8857DD06E1226)
  3. Complete name : Gossip Girl S03E01 1080p WEB-DL DD+ 5.1 x264-TrollHD.mkv
  4. Format : Matroska
  5. Format version : Version 4 / Version 2
  6. File size : 2.99 GiB
  7. Duration : 42 min 13 s
  8. Overall bit rate : 10.1 Mb/s
  9. Encoded date : UTC 2016-10-12 18:43:35
  10. Writing application : mkvmerge v9.4.2 ('So High') 64bit
  11. Writing library : libebml v1.3.4 + libmatroska v1.4.5
  12. Video
  13. ID : 2
  14. Format : AVC
  15. Format/Info : Advanced Video Codec
  16. Format profile : [email protected]
  17. Format settings : CABAC / 4 Ref Frames
  18. Format settings, CABAC : Yes
  19. Format settings, ReFrames : 4 frames
  20. Codec ID : V_MPEG4/ISO/AVC
  21. Duration : 42 min 13 s
  22. Bit rate mode : Constant
  23. Bit rate : 10 000 kb/s
  24. Width : 1 920 pixels
  25. Height : 1 080 pixels
  26. Display aspect ratio : 16:9
  27. Frame rate mode : Constant
  28. Frame rate : 23.976 (24000/1001) FPS
  29. Color space : YUV
  30. Chroma subsampling : 4:2:0
  31. Bit depth : 8 bits
  32. Scan type : Progressive
  33. Bits/(Pixel*Frame) : 0.201
  34. Stream size : 2.91 GiB (97%)
  35. Language : English
  36. Default : Yes
  37. Forced : No
  38. Color range : Limited
  39. Color primaries : BT.709
  40. Transfer characteristics : BT.709
  41. Matrix coefficients : BT.709
  42. Audio
  43. ID : 1
  44. Format : E-AC-3
  45. Format/Info : Enhanced Audio Coding 3
  46. Codec ID : A_EAC3
  47. Duration : 42 min 13 s
  48. Bit rate mode : Constant
  49. Bit rate : 256 kb/s
  50. Channel(s) : 6 channels
  51. Channel positions : Front: L C R, Side: L R, LFE
  52. Sampling rate : 48.0 kHz
  53. Frame rate : 187.500 FPS (256 SPF)
  54. Compression mode : Lossy
  55. Stream size : 77.3 MiB (3%)
  56. Language : English
  57. Service kind : Complete Main
  58. Default : Yes
  59. Forced : No
  60. Text
  61. ID : 3
  62. Format : UTF-8
  63. Codec ID : S_TEXT/UTF8
  64. Codec ID/Info : UTF-8 Plain Text
  65. Duration : 41 min 40 s
  66. Bit rate : 112 b/s
  67. Count of elements : 869
  68. Stream size : 34.4 KiB (0%)
  69. Default : Yes
  70. Forced : No
Comments powered by Disqus