1. Exact Audio Copy V1.0 beta 3 from 29. August 2011
  2. EAC extraction logfile from 18. April 2012, 5:27
  3. Madonna / Madonna CD1
  4. Used drive : PLEXTOR CD-R PREMIUM2 Adapter: 4 ID: 0
  5. Read mode : Secure
  6. Utilize accurate stream : Yes
  7. Defeat audio cache : Yes
  8. Make use of C2 pointers : No
  9. Read offset correction : 30
  10. Overread into Lead-In and Lead-Out : Yes
  11. Fill up missing offset samples with silence : Yes
  12. Delete leading and trailing silent blocks : No
  13. Null samples used in CRC calculations : Yes
  14. Used interface : Native Win32 interface for Win NT & 2000
  15. Gap handling : Appended to previous track
  16. Used output format : User Defined Encoder
  17. Selected bitrate : 1024 kBit/s
  18. Quality : High
  19. Add ID3 tag : No
  20. Command line compressor : C:\Program Files (x86)\Exact Audio Copy\Flac\flac.exe
  21. Additional command line options : -8 -V -T "ARTIST=%artist%" -T "TITLE=%title%" -T "ALBUM=%albumtitle%" -T "DATE=%year%" -T "TRACKNUMBER=%tracknr%" -T "TOTALTRACKS=%numtracks%" -T "GENRE=%genre%" -T "ALBUMARTIST=%albumartist%" -T "ALBUM ARTIST=%albumartist%" -T "COMMENT=EAC Secure Mode, Test & Copy, AccurateRip, FLAC -8" %source%
  22. TOC of the extracted CD
  23. Track | Start | Length | Start sector | End sector
  24. ---------------------------------------------------------
  25. 1 | 0:00.00 | 5:37.65 | 0 | 25339
  26. 2 | 5:37.65 | 5:20.67 | 25340 | 49406
  27. 3 | 10:58.57 | 3:45.25 | 49407 | 66306
  28. 4 | 14:44.07 | 3:47.18 | 66307 | 83349
  29. 5 | 18:31.25 | 6:10.55 | 83350 | 111154
  30. 6 | 24:42.05 | 4:54.70 | 111155 | 133274
  31. 7 | 29:37.00 | 6:39.45 | 133275 | 163244
  32. 8 | 36:16.45 | 6:02.32 | 163245 | 190426
  33. 9 | 42:19.02 | 5:59.40 | 190427 | 217391
  34. 10 | 48:18.42 | 7:15.08 | 217392 | 250024
  35. All tracks accurately ripped
  36. No errors occurred
  37. End of status report
  38. ==== Log checksum CE4010088EB6B61C6E22DA1F68600DACA6A5F3D7CCFD832B2D3F0BF3F1A73CD5 ====
  39. Exact Audio Copy V1.0 beta 3 from 29. August 2011
  40. EAC extraction logfile from 18. April 2012, 11:20
  41. Madonna / Like A Virgin CD2
  42. Used drive : PLEXTOR CD-R PREMIUM2 Adapter: 4 ID: 0
  43. Read mode : Secure
  44. Utilize accurate stream : Yes
  45. Defeat audio cache : Yes
  46. Make use of C2 pointers : No
  47. Read offset correction : 30
  48. Overread into Lead-In and Lead-Out : Yes
  49. Fill up missing offset samples with silence : Yes
  50. Delete leading and trailing silent blocks : No
  51. Null samples used in CRC calculations : Yes
  52. Used interface : Native Win32 interface for Win NT & 2000
  53. Gap handling : Appended to previous track
  54. Used output format : User Defined Encoder
  55. Selected bitrate : 1024 kBit/s
  56. Quality : High
  57. Add ID3 tag : No
  58. Command line compressor : C:\Program Files (x86)\Exact Audio Copy\Flac\flac.exe
  59. Additional command line options : -8 -V -T "ARTIST=%artist%" -T "TITLE=%title%" -T "ALBUM=%albumtitle%" -T "DATE=%year%" -T "TRACKNUMBER=%tracknr%" -T "TOTALTRACKS=%numtracks%" -T "GENRE=%genre%" -T "ALBUMARTIST=%albumartist%" -T "ALBUM ARTIST=%albumartist%" -T "COMMENT=EAC Secure Mode, Test & Copy, AccurateRip, FLAC -8" %source%
  60. TOC of the extracted CD
  61. Track | Start | Length | Start sector | End sector
  62. ---------------------------------------------------------
  63. 1 | 0:00.00 | 4:01.47 | 0 | 18121
  64. 2 | 4:01.47 | 3:56.03 | 18122 | 35824
  65. 3 | 7:57.50 | 3:38.50 | 35825 | 52224
  66. 4 | 11:36.25 | 4:12.32 | 52225 | 71156
  67. 5 | 15:48.57 | 4:49.58 | 71157 | 92889
  68. 6 | 20:38.40 | 4:01.40 | 92890 | 111004
  69. 7 | 24:40.05 | 5:17.12 | 111005 | 134791
  70. 8 | 29:57.17 | 4:30.38 | 134792 | 155079
  71. 9 | 34:27.55 | 4:09.15 | 155080 | 173769
  72. 10 | 38:36.70 | 6:09.52 | 173770 | 201496
  73. 11 | 44:46.47 | 6:07.23 | 201497 | 229044
  74. All tracks accurately ripped
  75. No errors occurred
  76. End of status report
  77. ==== Log checksum 1F0ADA308FA3D918CA8BB9FB985554FDE4A37C9B354DDED4099D5EF0431434BF ====
  78. Exact Audio Copy V1.0 beta 3 from 29. August 2011
  79. EAC extraction logfile from 18. April 2012, 12:41
  80. Madonna / True Blue CD3
  81. Used drive : PLEXTOR CD-R PREMIUM2 Adapter: 4 ID: 0
  82. Read mode : Secure
  83. Utilize accurate stream : Yes
  84. Defeat audio cache : Yes
  85. Make use of C2 pointers : No
  86. Read offset correction : 30
  87. Overread into Lead-In and Lead-Out : Yes
  88. Fill up missing offset samples with silence : Yes
  89. Delete leading and trailing silent blocks : No
  90. Null samples used in CRC calculations : Yes
  91. Used interface : Native Win32 interface for Win NT & 2000
  92. Gap handling : Appended to previous track
  93. Used output format : User Defined Encoder
  94. Selected bitrate : 1024 kBit/s
  95. Quality : High
  96. Add ID3 tag : No
  97. Command line compressor : C:\Program Files (x86)\Exact Audio Copy\Flac\flac.exe
  98. Additional command line options : -8 -V -T "ARTIST=%artist%" -T "TITLE=%title%" -T "ALBUM=%albumtitle%" -T "DATE=%year%" -T "TRACKNUMBER=%tracknr%" -T "TOTALTRACKS=%numtracks%" -T "GENRE=%genre%" -T "ALBUMARTIST=%albumartist%" -T "ALBUM ARTIST=%albumartist%" -T "COMMENT=EAC Secure Mode, Test & Copy, AccurateRip, FLAC -8" %source%
  99. TOC of the extracted CD
  100. Track | Start | Length | Start sector | End sector
  101. ---------------------------------------------------------
  102. 1 | 0:00.00 | 4:29.07 | 0 | 20181
  103. 2 | 4:29.07 | 4:13.43 | 20182 | 39199
  104. 3 | 8:42.50 | 4:40.05 | 39200 | 60204
  105. 4 | 13:22.55 | 5:52.52 | 60205 | 86656
  106. 5 | 19:15.32 | 4:21.10 | 86657 | 106241
  107. 6 | 23:36.42 | 4:18.38 | 106242 | 125629
  108. 7 | 27:55.05 | 4:02.57 | 125630 | 143836
  109. 8 | 31:57.62 | 3:55.55 | 143837 | 161516
  110. 9 | 35:53.42 | 4:35.68 | 161517 | 182209
  111. 10 | 40:29.35 | 6:39.17 | 182210 | 212151
  112. 11 | 47:08.52 | 5:25.38 | 212152 | 236564
  113. All tracks accurately ripped
  114. No errors occurred
  115. End of status report
  116. ==== Log checksum 4E4081200A8A82CAE3F25DF578C5EA01816262DD0C9D0184AF1B907C5A9127FB ====
  117. Exact Audio Copy V1.0 beta 3 from 29. August 2011
  118. EAC extraction logfile from 18. April 2012, 13:56
  119. Madonna / Like A Prayer CD4
  120. Used drive : PLEXTOR CD-R PREMIUM2 Adapter: 4 ID: 0
  121. Read mode : Secure
  122. Utilize accurate stream : Yes
  123. Defeat audio cache : Yes
  124. Make use of C2 pointers : No
  125. Read offset correction : 30
  126. Overread into Lead-In and Lead-Out : Yes
  127. Fill up missing offset samples with silence : Yes
  128. Delete leading and trailing silent blocks : No
  129. Null samples used in CRC calculations : Yes
  130. Used interface : Native Win32 interface for Win NT & 2000
  131. Gap handling : Appended to previous track
  132. Used output format : User Defined Encoder
  133. Selected bitrate : 1024 kBit/s
  134. Quality : High
  135. Add ID3 tag : No
  136. Command line compressor : C:\Program Files (x86)\Exact Audio Copy\Flac\flac.exe
  137. Additional command line options : -8 -V -T "ARTIST=%artist%" -T "TITLE=%title%" -T "ALBUM=%albumtitle%" -T "DATE=%year%" -T "TRACKNUMBER=%tracknr%" -T "TOTALTRACKS=%numtracks%" -T "GENRE=%genre%" -T "ALBUMARTIST=%albumartist%" -T "ALBUM ARTIST=%albumartist%" -T "COMMENT=EAC Secure Mode, Test & Copy, AccurateRip, FLAC -8" %source%
  138. TOC of the extracted CD
  139. Track | Start | Length | Start sector | End sector
  140. ---------------------------------------------------------
  141. 1 | 0:00.00 | 5:41.45 | 0 | 25619
  142. 2 | 5:41.45 | 4:39.28 | 25620 | 46572
  143. 3 | 10:20.73 | 4:52.45 | 46573 | 68517
  144. 4 | 15:13.43 | 5:18.32 | 68518 | 92399
  145. 5 | 20:32.00 | 3:38.08 | 92400 | 108757
  146. 6 | 24:10.08 | 5:04.10 | 108758 | 131567
  147. 7 | 29:14.18 | 4:20.55 | 131568 | 151122
  148. 8 | 33:34.73 | 4:58.67 | 151123 | 173539
  149. 9 | 38:33.65 | 5:03.13 | 173540 | 196277
  150. 10 | 43:37.03 | 5:17.57 | 196278 | 220109
  151. 11 | 48:54.60 | 2:19.40 | 220110 | 230574
  152. All tracks accurately ripped
  153. No errors occurred
  154. End of status report
  155. ==== Log checksum 452CFCCC19BBFB56718FAD4829F9201D68B57E02F0377EAEB642E3A5E46A1219 ====
  156. EAC extraction logfile from 18. April 2012, 20:46
  157. Madonna / Erotica CD5
  158. Used drive : PLEXTOR CD-R PREMIUM2 Adapter: 4 ID: 0
  159. Read mode : Secure
  160. Utilize accurate stream : Yes
  161. Defeat audio cache : Yes
  162. Make use of C2 pointers : No
  163. Read offset correction : 30
  164. Overread into Lead-In and Lead-Out : Yes
  165. Fill up missing offset samples with silence : Yes
  166. Delete leading and trailing silent blocks : No
  167. Null samples used in CRC calculations : Yes
  168. Used interface : Native Win32 interface for Win NT & 2000
  169. Gap handling : Appended to previous track
  170. Used output format : User Defined Encoder
  171. Selected bitrate : 1024 kBit/s
  172. Quality : High
  173. Add ID3 tag : No
  174. Command line compressor : C:\Program Files (x86)\Exact Audio Copy\Flac\flac.exe
  175. Additional command line options : -8 -V -T "ARTIST=%artist%" -T "TITLE=%title%" -T "ALBUM=%albumtitle%" -T "DATE=%year%" -T "TRACKNUMBER=%tracknr%" -T "TOTALTRACKS=%numtracks%" -T "GENRE=%genre%" -T "ALBUMARTIST=%albumartist%" -T "ALBUM ARTIST=%albumartist%" -T "COMMENT=EAC Secure Mode, Test & Copy, AccurateRip, FLAC -8" %source%
  176. TOC of the extracted CD
  177. Track | Start | Length | Start sector | End sector
  178. ---------------------------------------------------------
  179. 1 | 0:00.00 | 5:19.30 | 0 | 23954
  180. 2 | 5:19.30 | 5:00.60 | 23955 | 46514
  181. 3 | 10:20.15 | 3:56.17 | 46515 | 64231
  182. 4 | 14:16.32 | 5:33.48 | 64232 | 89254
  183. 5 | 19:50.05 | 5:57.47 | 89255 | 116076
  184. 6 | 25:47.52 | 5:23.23 | 116077 | 140324
  185. 7 | 31:11.00 | 5:46.60 | 140325 | 166334
  186. 8 | 36:57.60 | 4:51.27 | 166335 | 188186
  187. 9 | 41:49.12 | 5:56.00 | 188187 | 214886
  188. 10 | 47:45.12 | 5:24.48 | 214887 | 239234
  189. 11 | 53:09.60 | 5:23.32 | 239235 | 263491
  190. 12 | 58:33.17 | 6:23.03 | 263492 | 292219
  191. 13 | 64:56.20 | 4:54.17 | 292220 | 314286
  192. 14 | 69:50.37 | 5:32.13 | 314287 | 339199
  193. All tracks accurately ripped
  194. No errors occurred
  195. End of status report
  196. ==== Log checksum 14A324B424DB1FCE0B2D28F54FBC3935554ED1AE0294E49EDEE781A18245ABCD ====
  197. Exact Audio Copy V1.0 beta 3 from 29. August 2011
  198. EAC extraction logfile from 18. April 2012, 22:44
  199. Madonna / Bedtime Stories CD6
  200. Used drive : PLEXTOR CD-R PREMIUM2 Adapter: 4 ID: 0
  201. Read mode : Secure
  202. Utilize accurate stream : Yes
  203. Defeat audio cache : Yes
  204. Make use of C2 pointers : No
  205. Read offset correction : 30
  206. Overread into Lead-In and Lead-Out : Yes
  207. Fill up missing offset samples with silence : Yes
  208. Delete leading and trailing silent blocks : No
  209. Null samples used in CRC calculations : Yes
  210. Used interface : Native Win32 interface for Win NT & 2000
  211. Gap handling : Appended to previous track
  212. Used output format : User Defined Encoder
  213. Selected bitrate : 1024 kBit/s
  214. Quality : High
  215. Add ID3 tag : No
  216. Command line compressor : C:\Program Files (x86)\Exact Audio Copy\Flac\flac.exe
  217. Additional command line options : -8 -V -T "ARTIST=%artist%" -T "TITLE=%title%" -T "ALBUM=%albumtitle%" -T "DATE=%year%" -T "TRACKNUMBER=%tracknr%" -T "TOTALTRACKS=%numtracks%" -T "GENRE=%genre%" -T "ALBUMARTIST=%albumartist%" -T "ALBUM ARTIST=%albumartist%" -T "COMMENT=EAC Secure Mode, Test & Copy, AccurateRip, FLAC -8" %source%
  218. TOC of the extracted CD
  219. Track | Start | Length | Start sector | End sector
  220. ---------------------------------------------------------
  221. 1 | 0:00.00 | 3:31.27 | 0 | 15851
  222. 2 | 3:31.27 | 5:05.10 | 15852 | 38736
  223. 3 | 8:36.37 | 4:39.48 | 38737 | 59709
  224. 4 | 13:16.10 | 4:38.17 | 59710 | 80576
  225. 5 | 17:54.27 | 4:11.60 | 80577 | 99461
  226. 6 | 22:06.12 | 4:53.73 | 99462 | 121509
  227. 7 | 27:00.10 | 4:08.72 | 121510 | 140181
  228. 8 | 31:09.07 | 5:21.53 | 140182 | 164309
  229. 9 | 36:30.60 | 5:02.65 | 164310 | 187024
  230. 10 | 41:33.50 | 4:53.02 | 187025 | 209001
  231. 11 | 46:26.52 | 5:21.40 | 209002 | 233116
  232. All tracks accurately ripped
  233. No errors occurred
  234. End of status report
  235. ==== Log checksum 3E3E9A937A48F985D2886C341705E1750D2070668A7268C899DEB119D84BA983 ====
  236. Exact Audio Copy V1.0 beta 3 from 29. August 2011
  237. EAC extraction logfile from 19. April 2012, 0:19
  238. Madonna / Ray Of Light CD7
  239. Used drive : PLEXTOR CD-R PREMIUM2 Adapter: 4 ID: 0
  240. Read mode : Secure
  241. Utilize accurate stream : Yes
  242. Defeat audio cache : Yes
  243. Make use of C2 pointers : No
  244. Read offset correction : 30
  245. Overread into Lead-In and Lead-Out : Yes
  246. Fill up missing offset samples with silence : Yes
  247. Delete leading and trailing silent blocks : No
  248. Null samples used in CRC calculations : Yes
  249. Used interface : Native Win32 interface for Win NT & 2000
  250. Gap handling : Appended to previous track
  251. Used output format : User Defined Encoder
  252. Selected bitrate : 1024 kBit/s
  253. Quality : High
  254. Add ID3 tag : No
  255. Command line compressor : C:\Program Files (x86)\Exact Audio Copy\Flac\flac.exe
  256. Additional command line options : -8 -V -T "ARTIST=%artist%" -T "TITLE=%title%" -T "ALBUM=%albumtitle%" -T "DATE=%year%" -T "TRACKNUMBER=%tracknr%" -T "TOTALTRACKS=%numtracks%" -T "GENRE=%genre%" -T "ALBUMARTIST=%albumartist%" -T "ALBUM ARTIST=%albumartist%" -T "COMMENT=EAC Secure Mode, Test & Copy, AccurateRip, FLAC -8" %source%
  257. TOC of the extracted CD
  258. Track | Start | Length | Start sector | End sector
  259. ---------------------------------------------------------
  260. 1 | 0:00.00 | 5:08.73 | 0 | 23172
  261. 2 | 5:08.73 | 5:00.45 | 23173 | 45717
  262. 3 | 10:09.43 | 5:20.52 | 45718 | 69769
  263. 4 | 15:30.20 | 4:36.58 | 69770 | 90527
  264. 5 | 20:07.03 | 6:21.50 | 90528 | 119152
  265. 6 | 26:28.53 | 4:26.57 | 119153 | 139159
  266. 7 | 30:55.35 | 4:47.68 | 139160 | 160752
  267. 8 | 35:43.28 | 4:29.02 | 160753 | 180929
  268. 9 | 40:12.30 | 6:12.53 | 180930 | 208882
  269. 10 | 46:25.08 | 4:12.22 | 208883 | 227804
  270. 11 | 50:37.30 | 5:22.68 | 227805 | 252022
  271. 12 | 56:00.23 | 5:18.35 | 252023 | 275907
  272. 13 | 61:18.58 | 5:31.60 | 275908 | 300792
  273. All tracks accurately ripped
  274. No errors occurred
  275. End of status report
  276. ==== Log checksum 6A381456305572BFCF17E3B910C0992B260CF30353EC2821EEA0DA0016BFAC85 ====
  277. Exact Audio Copy V1.0 beta 3 from 29. August 2011
  278. EAC extraction logfile from 19. April 2012, 1:40
  279. Madonna / Music CD8
  280. Used drive : PLEXTOR CD-R PREMIUM2 Adapter: 4 ID: 0
  281. Read mode : Secure
  282. Utilize accurate stream : Yes
  283. Defeat audio cache : Yes
  284. Make use of C2 pointers : No
  285. Read offset correction : 30
  286. Overread into Lead-In and Lead-Out : Yes
  287. Fill up missing offset samples with silence : Yes
  288. Delete leading and trailing silent blocks : No
  289. Null samples used in CRC calculations : Yes
  290. Used interface : Native Win32 interface for Win NT & 2000
  291. Gap handling : Appended to previous track
  292. Used output format : User Defined Encoder
  293. Selected bitrate : 1024 kBit/s
  294. Quality : High
  295. Add ID3 tag : No
  296. Command line compressor : C:\Program Files (x86)\Exact Audio Copy\Flac\flac.exe
  297. Additional command line options : -8 -V -T "ARTIST=%artist%" -T "TITLE=%title%" -T "ALBUM=%albumtitle%" -T "DATE=%year%" -T "TRACKNUMBER=%tracknr%" -T "TOTALTRACKS=%numtracks%" -T "GENRE=%genre%" -T "ALBUMARTIST=%albumartist%" -T "ALBUM ARTIST=%albumartist%" -T "COMMENT=EAC Secure Mode, Test & Copy, AccurateRip, FLAC -8" %source%
  298. TOC of the extracted CD
  299. Track | Start | Length | Start sector | End sector
  300. ---------------------------------------------------------
  301. 1 | 0:00.00 | 3:45.32 | 0 | 16906
  302. 2 | 3:45.32 | 3:37.43 | 16907 | 33224
  303. 3 | 7:23.00 | 4:47.17 | 33225 | 54766
  304. 4 | 12:10.17 | 4:23.43 | 54767 | 74534
  305. 5 | 16:33.60 | 3:43.15 | 74535 | 91274
  306. 6 | 20:17.00 | 4:58.70 | 91275 | 113694
  307. 7 | 25:15.70 | 4:40.00 | 113695 | 134694
  308. 8 | 29:55.70 | 4:43.67 | 134695 | 155986
  309. 9 | 34:39.62 | 6:33.40 | 155987 | 185501
  310. 10 | 41:13.27 | 3:29.05 | 185502 | 201181
  311. 11 | 44:42.32 | 4:36.20 | 201182 | 221901
  312. All tracks accurately ripped
  313. No errors occurred
  314. End of status report
  315. ==== Log checksum 5C27C19117B7896875691A5DD9ACA33E66DA91F2F69025A41124D8A20E0DC3B8 ====
  316. Exact Audio Copy V1.0 beta 3 from 29. August 2011
  317. EAC extraction logfile from 19. April 2012, 2:59
  318. Madonna / American Life CD9
  319. Used drive : PLEXTOR CD-R PREMIUM2 Adapter: 4 ID: 0
  320. Read mode : Secure
  321. Utilize accurate stream : Yes
  322. Defeat audio cache : Yes
  323. Make use of C2 pointers : No
  324. Read offset correction : 30
  325. Overread into Lead-In and Lead-Out : Yes
  326. Fill up missing offset samples with silence : Yes
  327. Delete leading and trailing silent blocks : No
  328. Null samples used in CRC calculations : Yes
  329. Used interface : Native Win32 interface for Win NT & 2000
  330. Gap handling : Appended to previous track
  331. Used output format : User Defined Encoder
  332. Selected bitrate : 1024 kBit/s
  333. Quality : High
  334. Add ID3 tag : No
  335. Command line compressor : C:\Program Files (x86)\Exact Audio Copy\Flac\flac.exe
  336. Additional command line options : -8 -V -T "ARTIST=%artist%" -T "TITLE=%title%" -T "ALBUM=%albumtitle%" -T "DATE=%year%" -T "TRACKNUMBER=%tracknr%" -T "TOTALTRACKS=%numtracks%" -T "GENRE=%genre%" -T "ALBUMARTIST=%albumartist%" -T "ALBUM ARTIST=%albumartist%" -T "COMMENT=EAC Secure Mode, Test & Copy, AccurateRip, FLAC -8" %source%
  337. TOC of the extracted CD
  338. Track | Start | Length | Start sector | End sector
  339. ---------------------------------------------------------
  340. 1 | 0:00.00 | 4:57.63 | 0 | 22337
  341. 2 | 4:57.63 | 4:24.30 | 22338 | 42167
  342. 3 | 9:22.18 | 4:08.41 | 42168 | 60808
  343. 4 | 13:30.59 | 3:37.66 | 60809 | 77149
  344. 5 | 17:08.50 | 4:39.31 | 77150 | 98105
  345. 6 | 21:48.06 | 4:48.52 | 98106 | 119757
  346. 7 | 26:36.58 | 4:54.46 | 119758 | 141853
  347. 8 | 31:31.29 | 3:49.23 | 141854 | 159051
  348. 9 | 35:20.52 | 4:33.30 | 159052 | 179556
  349. 10 | 39:54.07 | 4:38.32 | 179557 | 200438
  350. 11 | 44:32.39 | 5:05.11 | 200439 | 223324
  351. All tracks accurately ripped
  352. No errors occurred
  353. End of status report
  354. ==== Log checksum 57EBCDA7019B2B74C041695D44FA7EC1FA9B93FBA5CFB68BD6B3B00E629D028C ====
  355. Exact Audio Copy V1.0 beta 3 from 29. August 2011
  356. EAC extraction logfile from 19. April 2012, 4:25
  357. Madonna / Confessions On A Dancefloor CD10
  358. Used drive : PLEXTOR CD-R PREMIUM2 Adapter: 4 ID: 0
  359. Read mode : Secure
  360. Utilize accurate stream : Yes
  361. Defeat audio cache : Yes
  362. Make use of C2 pointers : No
  363. Read offset correction : 30
  364. Overread into Lead-In and Lead-Out : Yes
  365. Fill up missing offset samples with silence : Yes
  366. Delete leading and trailing silent blocks : No
  367. Null samples used in CRC calculations : Yes
  368. Used interface : Native Win32 interface for Win NT & 2000
  369. Gap handling : Appended to previous track
  370. Used output format : User Defined Encoder
  371. Selected bitrate : 1024 kBit/s
  372. Quality : High
  373. Add ID3 tag : No
  374. Command line compressor : C:\Program Files (x86)\Exact Audio Copy\Flac\flac.exe
  375. Additional command line options : -8 -V -T "ARTIST=%artist%" -T "TITLE=%title%" -T "ALBUM=%albumtitle%" -T "DATE=%year%" -T "TRACKNUMBER=%tracknr%" -T "TOTALTRACKS=%numtracks%" -T "GENRE=%genre%" -T "ALBUMARTIST=%albumartist%" -T "ALBUM ARTIST=%albumartist%" -T "COMMENT=EAC Secure Mode, Test & Copy, AccurateRip, FLAC -8" %source%
  376. TOC of the extracted CD
  377. Track | Start | Length | Start sector | End sector
  378. ---------------------------------------------------------
  379. 1 | 0:00.00 | 5:36.23 | 0 | 25222
  380. 2 | 5:36.23 | 5:30.38 | 25223 | 50010
  381. 3 | 11:06.61 | 4:43.20 | 50011 | 71255
  382. 4 | 15:50.06 | 4:51.21 | 71256 | 93101
  383. 5 | 20:41.27 | 4:11.47 | 93102 | 111973
  384. 6 | 24:52.74 | 4:18.39 | 111974 | 131362
  385. 7 | 29:11.38 | 4:22.16 | 131363 | 151028
  386. 8 | 33:33.54 | 3:46.33 | 151029 | 168011
  387. 9 | 37:20.12 | 4:40.04 | 168012 | 189015
  388. 10 | 42:00.16 | 6:03.44 | 189016 | 216284
  389. 11 | 48:03.60 | 3:57.02 | 216285 | 234061
  390. 12 | 52:00.62 | 4:31.69 | 234062 | 254455
  391. All tracks accurately ripped
  392. No errors occurred
  393. End of status report
  394. ==== Log checksum 7233FF1EAF5A9C8E72C9B1DF9C75DD0A928C5ABF7966CDE9BBFF263E7A8C2B32 ====
  395. Exact Audio Copy V1.0 beta 3 from 29. August 2011
  396. EAC extraction logfile from 19. April 2012, 10:47
  397. Madonna / Hard candy CD11
  398. Used drive : PLEXTOR CD-R PREMIUM2 Adapter: 4 ID: 0
  399. Read mode : Secure
  400. Utilize accurate stream : Yes
  401. Defeat audio cache : Yes
  402. Make use of C2 pointers : No
  403. Read offset correction : 30
  404. Overread into Lead-In and Lead-Out : Yes
  405. Fill up missing offset samples with silence : Yes
  406. Delete leading and trailing silent blocks : No
  407. Null samples used in CRC calculations : Yes
  408. Used interface : Native Win32 interface for Win NT & 2000
  409. Gap handling : Appended to previous track
  410. Used output format : User Defined Encoder
  411. Selected bitrate : 1024 kBit/s
  412. Quality : High
  413. Add ID3 tag : No
  414. Command line compressor : C:\Program Files (x86)\Exact Audio Copy\Flac\flac.exe
  415. Additional command line options : -8 -V -T "ARTIST=%artist%" -T "TITLE=%title%" -T "ALBUM=%albumtitle%" -T "DATE=%year%" -T "TRACKNUMBER=%tracknr%" -T "TOTALTRACKS=%numtracks%" -T "GENRE=%genre%" -T "ALBUMARTIST=%albumartist%" -T "ALBUM ARTIST=%albumartist%" -T "COMMENT=EAC Secure Mode, Test & Copy, AccurateRip, FLAC -8" %source%
  416. TOC of the extracted CD
  417. Track | Start | Length | Start sector | End sector
  418. ---------------------------------------------------------
  419. 1 | 0:00.00 | 4:15.58 | 0 | 19182
  420. 2 | 4:15.58 | 4:03.66 | 19183 | 37473
  421. 3 | 8:19.49 | 4:47.68 | 37474 | 59066
  422. 4 | 13:07.42 | 4:03.28 | 59067 | 77319
  423. 5 | 17:10.70 | 4:48.69 | 77320 | 98988
  424. 6 | 21:59.64 | 6:04.38 | 98989 | 126326
  425. 7 | 28:04.27 | 6:19.38 | 126327 | 154789
  426. 8 | 34:23.65 | 4:26.67 | 154790 | 174806
  427. 9 | 38:50.57 | 5:03.07 | 174807 | 197538
  428. 10 | 43:53.64 | 3:37.45 | 197539 | 213858
  429. 11 | 47:31.34 | 5:08.57 | 213859 | 237015
  430. 12 | 52:40.16 | 3:39.35 | 237016 | 253475
  431. All tracks accurately ripped
  432. No errors occurred
  433. End of status report
Comments powered by Disqus