1. General
  2. Unique ID : 176947846038603604300014292590382801278 (0x851EEA600BF6F5FD7219FA4C9A5FE17E)
  3. Complete name : Star.Wars.The.Bad.Batch.S01E12.HDR.2160p.WEB.H265-EXPLOIT.mkv
  4. Format : Matroska
  5. Format version : Version 4
  6. File size : 2.88 GiB
  7. Duration : 25 min 34 s
  8. Overall bit rate : 16.1 Mb/s
  9. Encoded date : UTC 2021-07-16 07:16:56
  10. Writing application : mkvmerge v57.0.0 ('Till The End') 64-bit
  11. Writing library : libebml v1.4.2 + libmatroska v1.6.4
  12. Video
  13. ID : 1
  14. Format : HEVC
  15. Format/Info : High Efficiency Video Coding
  16. Format profile : Main [email protected]@High
  17. Codec ID : V_MPEGH/ISO/HEVC
  18. Duration : 25 min 34 s
  19. Bit rate : 15.8 Mb/s
  20. Width : 3 840 pixels
  21. Height : 2 160 pixels
  22. Display aspect ratio : 16:9
  23. Frame rate mode : Constant
  24. Frame rate : 23.976 (24000/1001) FPS
  25. Color space : YUV
  26. Chroma subsampling : 4:2:0
  27. Bit depth : 10 bits
  28. Bits/(Pixel*Frame) : 0.080
  29. Stream size : 2.83 GiB (98%)
  30. Default : Yes
  31. Forced : No
  32. Color range : Limited
  33. Color primaries : BT.2020
  34. Transfer characteristics : PQ
  35. Matrix coefficients : BT.2020 non-constant
  36. Audio
  37. ID : 2
  38. Format : E-AC-3
  39. Format/Info : Enhanced AC-3
  40. Commercial name : Dolby Digital Plus
  41. Codec ID : A_EAC3
  42. Duration : 25 min 34 s
  43. Bit rate mode : Constant
  44. Bit rate : 256 kb/s
  45. Channel(s) : 6 channels
  46. Channel layout : L R C LFE Ls Rs
  47. Sampling rate : 48.0 kHz
  48. Frame rate : 31.250 FPS (1536 SPF)
  49. Compression mode : Lossy
  50. Stream size : 46.8 MiB (2%)
  51. Title : English
  52. Language : English
  53. Service kind : Complete Main
  54. Default : No
  55. Forced : No
  56. Text #1
  57. ID : 3
  58. Format : UTF-8
  59. Codec ID : S_TEXT/UTF8
  60. Codec ID/Info : UTF-8 Plain Text
  61. Duration : 24 min 57 s
  62. Bit rate : 53 b/s
  63. Count of elements : 272
  64. Stream size : 9.75 KiB (0%)
  65. Title : Danish
  66. Language : Danish
  67. Default : No
  68. Forced : No
  69. Text #2
  70. ID : 4
  71. Format : UTF-8
  72. Codec ID : S_TEXT/UTF8
  73. Codec ID/Info : UTF-8 Plain Text
  74. Duration : 24 min 32 s
  75. Bit rate : 46 b/s
  76. Count of elements : 225
  77. Stream size : 8.44 KiB (0%)
  78. Title : Dutch
  79. Language : Dutch
  80. Default : No
  81. Forced : No
  82. Text #3
  83. ID : 5
  84. Format : UTF-8
  85. Codec ID : S_TEXT/UTF8
  86. Codec ID/Info : UTF-8 Plain Text
  87. Duration : 23 min 39 s
  88. Bit rate : 55 b/s
  89. Count of elements : 277
  90. Stream size : 9.60 KiB (0%)
  91. Title : English
  92. Language : English
  93. Default : No
  94. Forced : No
  95. Text #4
  96. ID : 6
  97. Format : UTF-8
  98. Codec ID : S_TEXT/UTF8
  99. Codec ID/Info : UTF-8 Plain Text
  100. Duration : 23 min 39 s
  101. Bit rate : 62 b/s
  102. Count of elements : 329
  103. Stream size : 10.9 KiB (0%)
  104. Title : English SDH
  105. Language : English
  106. Default : No
  107. Forced : No
  108. Text #5
  109. ID : 7
  110. Format : UTF-8
  111. Codec ID : S_TEXT/UTF8
  112. Codec ID/Info : UTF-8 Plain Text
  113. Duration : 24 min 32 s
  114. Bit rate : 48 b/s
  115. Count of elements : 261
  116. Stream size : 8.69 KiB (0%)
  117. Title : Finnish
  118. Language : Finnish
  119. Default : No
  120. Forced : No
  121. Text #6
  122. ID : 8
  123. Format : UTF-8
  124. Codec ID : S_TEXT/UTF8
  125. Codec ID/Info : UTF-8 Plain Text
  126. Duration : 24 min 32 s
  127. Bit rate : 54 b/s
  128. Count of elements : 270
  129. Stream size : 9.72 KiB (0%)
  130. Title : French
  131. Language : French
  132. Default : No
  133. Forced : No
  134. Text #7
  135. ID : 9
  136. Format : UTF-8
  137. Codec ID : S_TEXT/UTF8
  138. Codec ID/Info : UTF-8 Plain Text
  139. Duration : 24 min 32 s
  140. Bit rate : 54 b/s
  141. Count of elements : 259
  142. Stream size : 9.79 KiB (0%)
  143. Title : German
  144. Language : German
  145. Default : No
  146. Forced : No
  147. Text #8
  148. ID : 10
  149. Format : UTF-8
  150. Codec ID : S_TEXT/UTF8
  151. Codec ID/Info : UTF-8 Plain Text
  152. Duration : 24 min 32 s
  153. Bit rate : 53 b/s
  154. Count of elements : 255
  155. Stream size : 9.59 KiB (0%)
  156. Title : Italian
  157. Language : Italian
  158. Default : No
  159. Forced : No
  160. Text #9
  161. ID : 11
  162. Format : UTF-8
  163. Codec ID : S_TEXT/UTF8
  164. Codec ID/Info : UTF-8 Plain Text
  165. Duration : 24 min 57 s
  166. Bit rate : 53 b/s
  167. Count of elements : 272
  168. Stream size : 9.79 KiB (0%)
  169. Title : Norwegian
  170. Language : Norwegian
  171. Default : No
  172. Forced : No
  173. Text #10
  174. ID : 12
  175. Format : UTF-8
  176. Codec ID : S_TEXT/UTF8
  177. Codec ID/Info : UTF-8 Plain Text
  178. Duration : 25 min 8 s
  179. Bit rate : 51 b/s
  180. Count of elements : 272
  181. Stream size : 9.45 KiB (0%)
  182. Title : Polish
  183. Language : Polish
  184. Default : No
  185. Forced : No
  186. Text #11
  187. ID : 13
  188. Format : UTF-8
  189. Codec ID : S_TEXT/UTF8
  190. Codec ID/Info : UTF-8 Plain Text
  191. Duration : 24 min 57 s
  192. Bit rate : 54 b/s
  193. Count of elements : 271
  194. Stream size : 10.0 KiB (0%)
  195. Title : Portuguese
  196. Language : Portuguese
  197. Default : No
  198. Forced : No
  199. Text #12
  200. ID : 14
  201. Format : UTF-8
  202. Codec ID : S_TEXT/UTF8
  203. Codec ID/Info : UTF-8 Plain Text
  204. Duration : 24 min 32 s
  205. Bit rate : 55 b/s
  206. Count of elements : 264
  207. Stream size : 9.89 KiB (0%)
  208. Title : Brazilian Portuguese
  209. Language : Portuguese
  210. Default : No
  211. Forced : No
  212. Text #13
  213. ID : 15
  214. Format : UTF-8
  215. Codec ID : S_TEXT/UTF8
  216. Codec ID/Info : UTF-8 Plain Text
  217. Duration : 24 min 32 s
  218. Bit rate : 51 b/s
  219. Count of elements : 266
  220. Stream size : 9.24 KiB (0%)
  221. Title : Spanish
  222. Language : Spanish
  223. Default : No
  224. Forced : No
  225. Text #14
  226. ID : 16
  227. Format : UTF-8
  228. Codec ID : S_TEXT/UTF8
  229. Codec ID/Info : UTF-8 Plain Text
  230. Duration : 24 min 57 s
  231. Bit rate : 54 b/s
  232. Count of elements : 258
  233. Stream size : 9.88 KiB (0%)
  234. Title : European Spanish
  235. Language : Spanish
  236. Default : No
  237. Forced : No
  238. Text #15
  239. ID : 17
  240. Format : UTF-8
  241. Codec ID : S_TEXT/UTF8
  242. Codec ID/Info : UTF-8 Plain Text
  243. Duration : 24 min 57 s
  244. Bit rate : 53 b/s
  245. Count of elements : 272
  246. Stream size : 9.85 KiB (0%)
  247. Title : Swedish
  248. Language : Swedish
  249. Default : No
  250. Forced : No
Comments powered by Disqus