1. greetings to ARIO MKVTONY NATASHA IN HOLLAND LOETING IN BELGUIM CARLINE IN VIRGINIA GRAPES IN LONDON AND FRIENDS OF MINE!!!!
  2. links dead visit http://scene-rls.net/ for trusted downloads
  3. come and say hello in chatroom
  4. https://scene-release.ishoutbox.com/
  5. dddd=dont dare download dat
  6. i dont do h265 encodes no more unless it is a big title from hollywood h265 movies freezes up and breaks up while playing it on videolan vlc isnt ready for it yet :(
  7. General
  8. Complete name : C:\Users\ddddrelease\Desktop\Dads.Army.1971.RESTORED.BDRip.x264-GAZER.mp4
  9. Format : MPEG-4
  10. Format profile : Base Media
  11. Codec ID : isom (isom/iso2/avc1/mp41)
  12. File size : 547 MiB
  13. Duration : 1 h 34 min
  14. Overall bit rate mode : Constant
  15. Overall bit rate : 806 kb/s
  16. Movie name : ddddrelease rlsbb.ru
  17. Album : ddddrelease rlsbb.ru
  18. Album/Performer : ddddrelease rlsbb.ru
  19. Performer : ddddrelease rlsbb.ru
  20. Composer : ddddrelease rlsbb.ru
  21. Encoded date : UTC 2021-06-29 11:31:30
  22. Tagged date : UTC 2021-06-29 11:31:30
  23. Writing application : Lavf58.12.100
  24. Comment : ddddrelease rlsbb.ru
  25. Video
  26. ID : 1
  27. Format : AVC
  28. Format/Info : Advanced Video Codec
  29. Format profile : [email protected]
  30. Format settings : CABAC / 1 Ref Frames
  31. Format settings, CABAC : Yes
  32. Format settings, Reference frames : 1 frame
  33. Format settings, GOP : M=1, N=25
  34. Codec ID : avc1
  35. Codec ID/Info : Advanced Video Coding
  36. Duration : 1 h 34 min
  37. Bit rate mode : Constant
  38. Bit rate : 606 kb/s
  39. Width : 720 pixels
  40. Height : 480 pixels
  41. Display aspect ratio : 3:2
  42. Frame rate mode : Variable
  43. Frame rate : 23.976 (24000/1001) FPS
  44. Minimum frame rate : 8.000 FPS
  45. Maximum frame rate : 3 428.571 FPS
  46. Color space : YUV
  47. Chroma subsampling : 4:2:0
  48. Bit depth : 8 bits
  49. Scan type : Progressive
  50. Bits/(Pixel*Frame) : 0.073
  51. Stream size : 411 MiB (75%)
  52. Encoded date : UTC 2021-06-29 11:31:30
  53. Tagged date : UTC 2021-06-29 11:31:30
  54. Codec configuration box : avcC
  55. Audio
  56. ID : 2
  57. Format : AAC LC
  58. Format/Info : Advanced Audio Codec Low Complexity
  59. Codec ID : mp4a-40-2
  60. Duration : 1 h 34 min
  61. Bit rate mode : Constant
  62. Bit rate : 192 kb/s
  63. Channel(s) : 1 channel
  64. Channel layout : C
  65. Sampling rate : 48.0 kHz
  66. Frame rate : 46.875 FPS (1024 SPF)
  67. Compression mode : Lossy
  68. Stream size : 132 MiB (24%)
  69. Language : English
  70. Default : Yes
  71. Alternate group : 1
  72. Encoded date : UTC 2021-06-29 11:31:30
  73. Tagged date : UTC 2021-06-29 11:31:30
Comments powered by Disqus