1. Format : Matroska
  2. Format version : Version 2
  3. File size : 3.80 GiB
  4. Duration : 1h 32mn
  5. Overall bit rate : 5 898 Kbps
  6. Encoded date : UTC 2015-06-12 04:22:40
  7. Writing application : mkvmerge v5.3.0 ('I could have danced') built on Feb 9 2012 10:38:07
  8. Writing library : libebml v1.2.3 + libmatroska v1.3.0
  9. Video
  10. ID : 1
  11. Format : AVC
  12. Format/Info : Advanced Video Codec
  13. Format profile : [email protected]
  14. Format settings, CABAC : Yes
  15. Format settings, ReFrames : 4 frames
  16. Codec ID : V_MPEG4/ISO/AVC
  17. Duration : 1h 32mn
  18. Bit rate : 5 000 Kbps
  19. Width : 1 920 pixels
  20. Height : 816 pixels
  21. Display aspect ratio : 2.35:1
  22. Frame rate mode : Constant
  23. Frame rate : 23.976 fps
  24. Color space : YUV
  25. Chroma subsampling : 4:2:0
  26. Bit depth : 8 bits
  27. Scan type : Progressive
  28. Bits/(Pixel*Frame) : 0.133
  29. Stream size : 3.15 GiB (83%)
  30. Writing library : x264 core 142 r2479 dd79a61
  31. Encoding settings : cabac=1 / ref=1 / deblock=1:-1:-1 / analyse=0x3:0x113 / me=hex / subme=2 / psy=1 / psy_rd=1.00:0.15 / mixed_ref=0 / me_range=16 / chroma_me=1 / trellis=0 / 8x8dct=1 / cqm=0 / deadzone=21,11 / fast_pskip=1 / chroma_qp_offset=0 / threads=12 / lookahead_threads=4 / sliced_threads=0 / nr=0 / decimate=1 / interlaced=0 / bluray_compat=0 / constrained_intra=0 / bframes=3 / b_pyramid=2 / b_adapt=1 / b_bias=0 / direct=1 / weightb=1 / open_gop=0 / weightp=1 / keyint=240 / keyint_min=24 / scenecut=40 / intra_refresh=0 / rc_lookahead=10 / rc=2pass / mbtree=1 / bitrate=5000 / ratetol=1.0 / qcomp=0.60 / qpmin=0 / qpmax=69 / qpstep=4 / cplxblur=20.0 / qblur=0.5 / vbv_maxrate=62500 / vbv_bufsize=78125 / nal_hrd=none / filler=0 / ip_ratio=1.40 / aq=1:1.00
  32. Language : Spanish
  33. Default : Yes
  34. Forced : No
  35. Color primaries : BT.709
  36. Transfer characteristics : BT.709
  37. Matrix coefficients : BT.709
  38. Color range : Limited
  39. Audio #1
  40. ID : 2
  41. Format : AC-3
  42. Format/Info : Audio Coding 3
  43. Mode extension : CM (complete main)
  44. Format settings, Endianness : Big
  45. Codec ID : A_AC3
  46. Duration : 1h 32mn
  47. Bit rate mode : Constant
  48. Bit rate : 448 Kbps
  49. Channel(s) : 6 channels
  50. Channel positions : Front: L C R, Side: L R, LFE
  51. Sampling rate : 48.0 KHz
  52. Bit depth : 16 bits
  53. Compression mode : Lossy
  54. Delay relative to video : 1s 917ms
  55. Stream size : 296 MiB (8%)
  56. Language : Spanish
  57. Default : Yes
  58. Forced : No
  59. Audio #2
  60. ID : 3
  61. Format : AC-3
  62. Format/Info : Audio Coding 3
  63. Mode extension : CM (complete main)
  64. Format settings, Endianness : Big
  65. Codec ID : A_AC3
  66. Duration : 1h 32mn
  67. Bit rate mode : Constant
  68. Bit rate : 448 Kbps
  69. Channel(s) : 6 channels
  70. Channel positions : Front: L C R, Side: L R, LFE
  71. Sampling rate : 48.0 KHz
  72. Bit depth : 16 bits
  73. Compression mode : Lossy
  74. Delay relative to video : -83ms
  75. Stream size : 296 MiB (8%)
  76. Language : English
  77. Default : No
  78. Forced : No
  79. Text #1
  80. ID : 4
  81. Format : UTF-8
  82. Codec ID : S_TEXT/UTF8
  83. Codec ID/Info : UTF-8 Plain Text
  84. Language : Spanish
  85. Default : No
  86. Forced : No
  87. Text #2
  88. ID : 5
  89. Format : UTF-8
  90. Codec ID : S_TEXT/UTF8
  91. Codec ID/Info : UTF-8 Plain Text
  92. Language : English
  93. Default : No
  94. Forced : No
Comments powered by Disqus