1. General
  2. Unique ID : 113593197704385355662702893359068209843 (0x5575410C49DAA7D4A728A21A2BB5E2B3)
  3. Complete name : Numb3rs.S01E01.Pilot.1080p.AMZN.WEB-DL.DD+2.0.H.264-SiGMA.mkv
  4. Format : Matroska
  5. Format version : Version 4 / Version 2
  6. File size : 4.09 GiB
  7. Duration : 43 min 21 s
  8. Overall bit rate mode : Variable
  9. Overall bit rate : 13.5 Mb/s
  10. Encoded date : UTC 2017-11-23 17:28:47
  11. Writing application : mkvmerge v17.0.0 ('Be Ur Friend') 64-bit
  12. Writing library : libebml v1.3.5 + libmatroska v1.4.8
  13. Video
  14. ID : 1
  15. Format : AVC
  16. Format/Info : Advanced Video Codec
  17. Format profile : [email protected]
  18. Format settings : CABAC / 4 Ref Frames
  19. Format settings, CABAC : Yes
  20. Format settings, ReFrames : 4 frames
  21. Codec ID : V_MPEG4/ISO/AVC
  22. Duration : 43 min 21 s
  23. Bit rate mode : Variable
  24. Bit rate : 13.3 Mb/s
  25. Maximum bit rate : 15.0 Mb/s
  26. Width : 1 920 pixels
  27. Height : 1 080 pixels
  28. Display aspect ratio : 16:9
  29. Frame rate mode : Constant
  30. Frame rate : 23.976 (24000/1001) FPS
  31. Color space : YUV
  32. Chroma subsampling : 4:2:0
  33. Bit depth : 8 bits
  34. Scan type : Progressive
  35. Bits/(Pixel*Frame) : 0.267
  36. Stream size : 4.02 GiB (98%)
  37. Writing library : x264 core 148 r2623 d5b2374
  38. Encoding settings : cabac=1 / ref=4 / deblock=1:-1:-1 / analyse=0x3:0x133 / me=umh / subme=9 / psy=1 / psy_rd=1.00:0.15 / mixed_ref=1 / me_range=24 / chroma_me=1 / trellis=2 / 8x8dct=1 / cqm=0 / deadzone=21,11 / fast_pskip=1 / chroma_qp_offset=-3 / threads=34 / lookahead_threads=5 / sliced_threads=0 / nr=150 / decimate=1 / interlaced=0 / bluray_compat=0 / constrained_intra=0 / bframes=8 / b_pyramid=2 / b_adapt=2 / b_bias=0 / direct=3 / weightb=1 / open_gop=0 / weightp=2 / keyint=120 / keyint_min=61 / scenecut=0 / intra_refresh=0 / rc_lookahead=120 / rc=crf / mbtree=1 / crf=18.0 / qcomp=0.60 / qpmin=0 / qpmax=69 / qpstep=4 / vbv_maxrate=15000 / vbv_bufsize=31250 / crf_max=0.0 / nal_hrd=vbr / filler=0 / ip_ratio=1.40 / aq=3:1.00
  39. Default : Yes
  40. Forced : No
  41. Color range : Limited
  42. Color primaries : BT.709
  43. Transfer characteristics : BT.709
  44. Matrix coefficients : BT.709
  45. Audio
  46. ID : 2
  47. Format : E-AC-3
  48. Format/Info : Enhanced Audio Coding 3
  49. Codec ID : A_EAC3
  50. Duration : 43 min 21 s
  51. Bit rate mode : Constant
  52. Bit rate : 224 kb/s
  53. Channel(s) : 2 channels
  54. Channel positions : Front: L R
  55. Sampling rate : 48.0 kHz
  56. Frame rate : 187.500 FPS (256 SPF)
  57. Compression mode : Lossy
  58. Stream size : 69.5 MiB (2%)
  59. Language : English
  60. Service kind : Complete Main
  61. Default : Yes
  62. Forced : No
  63. Text
  64. ID : 3
  65. Format : UTF-8
  66. Codec ID : S_TEXT/UTF8
  67. Codec ID/Info : UTF-8 Plain Text
  68. Duration : 42 min 41 s
  69. Bit rate : 86 b/s
  70. Count of elements : 918
  71. Stream size : 27.1 KiB (0%)
  72. Language : English
  73. Default : No
  74. Forced : No
Comments powered by Disqus