1. General
  2. Unique ID : 130740758055349105363965851136269261059 (0x625BC10BFB2EDC3BC3060B103AA89903)
  3. Complete name : John.Wick.Chapter.3.Parabellum.2019.UHD.BluRay.2160p.TrueHD.Atmos.7.1.HEVC.REMUX-FraMeSToR.mkv
  4. Format : Matroska
  5. Format version : Version 4
  6. File size : 62.1 GiB
  7. Duration : 2 h 10 min
  8. Overall bit rate mode : Variable
  9. Overall bit rate : 68.0 Mb/s
  10. Movie name : John Wick: Chapter 3 - Parabellum 4K
  11. Encoded date : UTC 2019-09-01 10:47:41
  12. Writing application : mkvmerge v37.0.0 ('Leave It') 64-bit
  13. Writing library : libebml v1.3.9 + libmatroska v1.5.2
  14. Video
  15. ID : 1
  16. Format : HEVC
  17. Format/Info : High Efficiency Video Coding
  18. Format profile : Main [email protected]@High
  19. HDR format : SMPTE ST 2086, HDR10 compatible
  20. Codec ID : V_MPEGH/ISO/HEVC
  21. Duration : 2 h 10 min
  22. Bit rate : 63.2 Mb/s
  23. Width : 3 840 pixels
  24. Height : 2 160 pixels
  25. Display aspect ratio : 16:9
  26. Frame rate mode : Constant
  27. Frame rate : 23.976 (24000/1001) FPS
  28. Color space : YUV
  29. Chroma subsampling : 4:2:0 (Type 2)
  30. Bit depth : 10 bits
  31. Bits/(Pixel*Frame) : 0.318
  32. Stream size : 57.7 GiB (93%)
  33. Default : Yes
  34. Forced : No
  35. Color range : Limited
  36. Color primaries : BT.2020
  37. Transfer characteristics : PQ
  38. Matrix coefficients : BT.2020 non-constant
  39. Mastering display color primaries : Display P3
  40. Mastering display luminance : min: 0.0010 cd/m2, max: 1000 cd/m2
  41. Maximum Content Light Level : 1000 cd/m2
  42. Maximum Frame-Average Light Level : 358 cd/m2
  43. Audio #1
  44. ID : 2
  45. Format : MLP FBA 16-ch
  46. Format/Info : Meridian Lossless Packing FBA with 16-channel presentation
  47. Commercial name : Dolby TrueHD with Dolby Atmos
  48. Codec ID : A_TRUEHD
  49. Duration : 2 h 10 min
  50. Bit rate mode : Variable
  51. Bit rate : 4 012 kb/s
  52. Maximum bit rate : 6 327 kb/s
  53. Channel(s) : 8 channels
  54. Channel layout : L R C LFE Ls Rs Lb Rb
  55. Sampling rate : 48.0 kHz
  56. Frame rate : 1 200.000 FPS (40 SPF)
  57. Compression mode : Lossless
  58. Stream size : 3.66 GiB (6%)
  59. Title : TrueHD Atmos 7.1
  60. Language : English
  61. Default : Yes
  62. Forced : No
  63. Number of dynamic objects : 15
  64. Bed channel count : 1 channel
  65. Bed channel configuration : LFE
  66. Audio #2
  67. ID : 3
  68. Format : AC-3
  69. Format/Info : Audio Coding 3
  70. Commercial name : Dolby Digital
  71. Codec ID : A_AC3
  72. Duration : 2 h 10 min
  73. Bit rate mode : Constant
  74. Bit rate : 640 kb/s
  75. Channel(s) : 6 channels
  76. Channel layout : L R C LFE Ls Rs
  77. Sampling rate : 48.0 kHz
  78. Frame rate : 31.250 FPS (1536 SPF)
  79. Bit depth : 16 bits
  80. Compression mode : Lossy
  81. Stream size : 599 MiB (1%)
  82. Title : AC3 5.1-EX
  83. Language : English
  84. Service kind : Complete Main
  85. Default : No
  86. Forced : No
  87. Text #1
  88. ID : 4
  89. Format : PGS
  90. Codec ID : S_HDMV/PGS
  91. Codec ID/Info : Picture based subtitle format used on BDs/HD-DVDs
  92. Duration : 1 h 59 min
  93. Bit rate : 17.0 kb/s
  94. Count of elements : 1370
  95. Stream size : 14.6 MiB (0%)
  96. Title : English
  97. Language : English
  98. Default : No
  99. Forced : No
  100. Text #2
  101. ID : 5
  102. Format : PGS
  103. Codec ID : S_HDMV/PGS
  104. Codec ID/Info : Picture based subtitle format used on BDs/HD-DVDs
  105. Duration : 2 h 0 min
  106. Bit rate : 22.1 kb/s
  107. Count of elements : 2042
  108. Stream size : 19.1 MiB (0%)
  109. Title : English (SDH)
  110. Language : English
  111. Default : No
  112. Forced : No
  113. Text #3
  114. ID : 6
  115. Format : PGS
  116. Codec ID : S_HDMV/PGS
  117. Codec ID/Info : Picture based subtitle format used on BDs/HD-DVDs
  118. Duration : 1 h 59 min
  119. Bit rate : 17.2 kb/s
  120. Count of elements : 1672
  121. Stream size : 14.8 MiB (0%)
  122. Title : French
  123. Language : French
  124. Default : No
  125. Forced : No
  126. Text #4
  127. ID : 7
  128. Format : PGS
  129. Codec ID : S_HDMV/PGS
  130. Codec ID/Info : Picture based subtitle format used on BDs/HD-DVDs
  131. Duration : 1 h 59 min
  132. Bit rate : 12.7 kb/s
  133. Count of elements : 1254
  134. Stream size : 10.9 MiB (0%)
  135. Title : Italian
  136. Language : Italian
  137. Default : No
  138. Forced : No
  139. Text #5
  140. ID : 8
  141. Format : PGS
  142. Codec ID : S_HDMV/PGS
  143. Codec ID/Info : Picture based subtitle format used on BDs/HD-DVDs
  144. Duration : 2 h 0 min
  145. Bit rate : 17.5 kb/s
  146. Count of elements : 1538
  147. Stream size : 15.1 MiB (0%)
  148. Title : Spanish (Latin American)
  149. Language : Spanish
  150. Default : No
  151. Forced : No
  152. Menu
  153. 00:00:00.000 : en:Chapter 01
  154. 00:08:46.860 : en:Chapter 02
  155. 00:14:06.763 : en:Chapter 03
  156. 00:22:40.401 : en:Chapter 04
  157. 00:31:26.301 : en:Chapter 05
  158. 00:37:51.311 : en:Chapter 06
  159. 00:47:43.319 : en:Chapter 07
  160. 00:57:09.176 : en:Chapter 08
  161. 01:02:56.439 : en:Chapter 09
  162. 01:14:27.672 : en:Chapter 10
  163. 01:20:36.665 : en:Chapter 11
  164. 01:28:48.365 : en:Chapter 12
  165. 01:33:51.793 : en:Chapter 13
  166. 01:41:31.794 : en:Chapter 14
  167. 01:53:44.651 : en:Chapter 15
  168. 01:59:51.434 : en:Chapter 16
Comments powered by Disqus