1. greetings to ARIO MKVTONY NATASHA IN HOLLAND LOETING IN BELGUIM CARLINE IN VIRGINIA GRAPES IN LONDON AND FRIENDS OF MINE!!!!
  2. links dead visit http://scene-rls.net/ for trusted downloads
  3. come and say hello in chatroom
  4. https://scene-release.ishoutbox.com/
  5. dddd=dont dare download dat
  6. i dont do h265 encodes no more unless it is a big title from hollywood h265 movies freezes up and breaks up while playing it on videolan vlc isnt ready for it yet :(
  7. General
  8. Complete name : C:\Users\ddddrelease\Desktop\america.the.motion.picture.2021.480p.web.x264.mp4
  9. Format : MPEG-4
  10. Format profile : Base Media
  11. Codec ID : isom (isom/iso2/avc1/mp41)
  12. File size : 308 MiB
  13. Duration : 1 h 38 min
  14. Overall bit rate : 438 kb/s
  15. Movie name : ddddrelease rlsbb.ru
  16. Album : ddddrelease rlsbb.ru
  17. Album/Performer : ddddrelease rlsbb.ru
  18. Performer : ddddrelease rlsbb.ru
  19. Composer : ddddrelease rlsbb.ru
  20. Description : Encoded By RMTeam, http://RMZ.cr
  21. Writing application : Lavf58.12.100
  22. Comment : ddddrelease rlsbb.ru
  23. Video
  24. ID : 1
  25. Format : AVC
  26. Format/Info : Advanced Video Codec
  27. Format profile : [email protected]
  28. Format settings : CABAC / 2 Ref Frames
  29. Format settings, CABAC : Yes
  30. Format settings, Reference frames : 2 frames
  31. Codec ID : avc1
  32. Codec ID/Info : Advanced Video Coding
  33. Duration : 1 h 38 min
  34. Bit rate : 238 kb/s
  35. Width : 480 pixels
  36. Height : 320 pixels
  37. Display aspect ratio : 3:2
  38. Frame rate mode : Variable
  39. Frame rate : 16.000 FPS
  40. Color space : YUV
  41. Chroma subsampling : 4:2:0
  42. Bit depth : 8 bits
  43. Scan type : Progressive
  44. Bits/(Pixel*Frame) : 0.097
  45. Stream size : 167 MiB (54%)
  46. Codec configuration box : avcC
  47. Audio
  48. ID : 2
  49. Format : AAC LC
  50. Format/Info : Advanced Audio Codec Low Complexity
  51. Codec ID : mp4a-40-2
  52. Duration : 1 h 38 min
  53. Bit rate mode : Constant
  54. Bit rate : 192 kb/s
  55. Channel(s) : 2 channels
  56. Channel layout : L R
  57. Sampling rate : 48.0 kHz
  58. Frame rate : 46.875 FPS (1024 SPF)
  59. Compression mode : Lossy
  60. Stream size : 136 MiB (44%)
  61. Language : English
  62. Default : Yes
  63. Alternate group : 1
Comments powered by Disqus