1. General
  2. Unique ID : 299536724275642927376738552015134016468 (0xE158ACB75825ABE91C0A60FC087643D4)
  3. Complete name : unfired-thedrop-x265.mkv
  4. Format : Matroska
  5. Format version : Version 2
  6. File size : 3.11 GiB
  7. Duration : 1 h 46 min
  8. Overall bit rate : 4 171 kb/s
  9. Encoded date : UTC 2018-04-23 14:50:30
  10. Writing application : mkvmerge v20.0.0 ('I Am The Sun') 64-bit
  11. Writing library : libebml v1.3.5 + libmatroska v1.4.8
  12. Video
  13. ID : 1
  14. Format : HEVC
  15. Format/Info : High Efficiency Video Coding
  16. Format profile : [email protected]@Main
  17. Codec ID : V_MPEGH/ISO/HEVC
  18. Duration : 1 h 46 min
  19. Bit rate : 1 885 kb/s
  20. Width : 1 920 pixels
  21. Height : 800 pixels
  22. Display aspect ratio : 2.40:1
  23. Frame rate mode : Constant
  24. Frame rate : 23.976 (24000/1001) FPS
  25. Color space : YUV
  26. Chroma subsampling : 4:2:0
  27. Bit depth : 8 bits
  28. Bits/(Pixel*Frame) : 0.051
  29. Stream size : 1.41 GiB (45%)
  30. Writing library : x265 2.7+1-2aa737a99f51:[Windows][GCC 7.3.0][64 bit] 8bit+10bit+12bit
  31. Encoding settings : cpuid=1050111 / frame-threads=16 / numa-pools=16,16 / wpp / no-pmode / no-pme / no-psnr / no-ssim / log-level=2 / input-csp=1 / input-res=1920x800 / interlace=0 / total-frames=153543 / level-idc=0 / high-tier=1 / uhd-bd=0 / ref=4 / no-allow-non-conformance / no-repeat-headers / annexb / no-aud / no-hrd / info / hash=0 / no-temporal-layers / open-gop / min-keyint=23 / keyint=250 / gop-lookahead=0 / bframes=4 / b-adapt=2 / b-pyramid / bframe-bias=0 / rc-lookahead=25 / lookahead-slices=4 / scenecut=40 / radl=0 / no-intra-refresh / ctu=64 / min-cu-size=8 / rect / no-amp / max-tu-size=32 / tu-inter-depth=1 / tu-intra-depth=1 / limit-tu=0 / rdoq-level=2 / dynamic-rd=0.00 / no-ssim-rd / signhide / no-tskip / nr-intra=0 / nr-inter=0 / no-constrained-intra / strong-intra-smoothing / max-merge=3 / limit-refs=3 / limit-modes / me=3 / subme=3 / merange=57 / temporal-mvp / weightp / no-weightb / no-analyze-src-pics / deblock=0:0 / sao / no-sao-non-deblock / rd=4 / no-early-skip / rskip / no-fast-intra / no-tskip-fast / no-cu-lossless / no-b-intra / no-splitrd-skip / rdpenalty=0 / psy-rd=2.00 / psy-rdoq=1.00 / no-rd-refine / no-lossless / cbqpoffs=0 / crqpoffs=0 / rc=crf / crf=19.9 / qcomp=0.60 / qpstep=4 / stats-write=0 / stats-read=0 / ipratio=1.40 / pbratio=1.30 / aq-mode=1 / aq-strength=1.00 / cutree / zone-count=0 / no-strict-cbr / qg-size=32 / no-rc-grain / qpmax=69 / qpmin=0 / no-const-vbv / sar=1 / overscan=0 / videoformat=5 / range=0 / colorprim=2 / transfer=2 / colormatrix=2 / chromaloc=0 / display-window=0 / max-cll=0,0 / min-luma=0 / max-luma=255 / log2-max-poc-lsb=8 / vui-timing-info / vui-hrd-info / slices=1 / no-opt-qp-pps / no-opt-ref-list-length-pps / no-multi-pass-opt-rps / scenecut-bias=0.05 / no-opt-cu-delta-qp / no-aq-motion / no-hdr / no-hdr-opt / no-dhdr10-opt / analysis-reuse-level=5 / scale-factor=0 / refine-intra=0 / refine-inter=0 / refine-mv=0 / no-limit-sao / ctu-info=0 / no-lowpass-dct / refine-mv-type=0 / copy-pic=1
  32. Default : Yes
  33. Forced : No
  34. Audio #1
  35. ID : 2
  36. Format : DTS
  37. Format/Info : Digital Theater Systems
  38. Mode : 16
  39. Format settings, Endianness : Big
  40. Codec ID : A_DTS
  41. Duration : 1 h 46 min
  42. Bit rate mode : Constant
  43. Bit rate : 768 kb/s
  44. Channel(s) : 6 channels
  45. Channel positions : Front: L C R, Side: L R, LFE
  46. Sampling rate : 48.0 kHz
  47. Frame rate : 93.750 FPS (512 spf)
  48. Bit depth : 24 bits
  49. Compression mode : Lossy
  50. Stream size : 586 MiB (18%)
  51. Language : German
  52. Default : Yes
  53. Forced : No
  54. Audio #2
  55. ID : 3
  56. Format : DTS
  57. Format/Info : Digital Theater Systems
  58. Mode : 16
  59. Format settings, Endianness : Big
  60. Codec ID : A_DTS
  61. Duration : 1 h 46 min
  62. Bit rate mode : Constant
  63. Bit rate : 1 509 kb/s
  64. Channel(s) : 6 channels
  65. Channel positions : Front: L C R, Side: L R, LFE
  66. Sampling rate : 48.0 kHz
  67. Frame rate : 93.750 FPS (512 spf)
  68. Bit depth : 24 bits
  69. Compression mode : Lossy
  70. Stream size : 1.13 GiB (36%)
  71. Language : English
  72. Default : No
  73. Forced : No
  74. Text
  75. ID : 4
  76. Format : VobSub
  77. Muxing mode : zlib
  78. Codec ID : S_VOBSUB
  79. Codec ID/Info : Picture based subtitle format used on DVDs
  80. Duration : 1 h 45 min
  81. Bit rate : 9 466 b/s
  82. Count of elements : 1390
  83. Stream size : 7.14 MiB (0%)
  84. Title : complete
  85. Language : German
  86. Default : No
  87. Forced : No
  88. Menu
  89. 00:00:00.000 : en:Chapter 01
  90. 00:02:25.353 : en:Chapter 02
  91. 00:05:59.859 : en:Chapter 03
  92. 00:08:09.155 : en:Chapter 04
  93. 00:11:34.777 : en:Chapter 05
  94. 00:13:48.744 : en:Chapter 06
  95. 00:17:28.922 : en:Chapter 07
  96. 00:21:37.212 : en:Chapter 08
  97. 00:25:40.830 : en:Chapter 09
  98. 00:27:53.463 : en:Chapter 10
  99. 00:32:02.337 : en:Chapter 11
  100. 00:36:19.552 : en:Chapter 12
  101. 00:38:15.751 : en:Chapter 13
  102. 00:40:35.141 : en:Chapter 14
  103. 00:44:05.476 : en:Chapter 15
  104. 00:46:47.471 : en:Chapter 16
  105. 00:48:42.711 : en:Chapter 17
  106. 00:52:50.584 : en:Chapter 18
  107. 00:56:28.176 : en:Chapter 19
  108. 01:01:40.530 : en:Chapter 20
  109. 01:05:43.105 : en:Chapter 21
  110. 01:07:36.802 : en:Chapter 22
  111. 01:11:13.519 : en:Chapter 23
  112. 01:12:32.598 : en:Chapter 24
  113. 01:15:09.505 : en:Chapter 25
  114. 01:21:11.741 : en:Chapter 26
  115. 01:24:10.086 : en:Chapter 27
  116. 01:28:27.260 : en:Chapter 28
  117. 01:30:51.404 : en:Chapter 29
  118. 01:34:54.480 : en:Chapter 30
  119. 01:39:00.893 : en:Chapter 31
  120. 01:41:16.236 : en:Chapter 32
Comments powered by Disqus