1. General
  2. Unique ID : 177516474094531394400004740133971639530 (0x858C6DE7223825C8A59AE79343113CEA)
  3. Complete name : 1.mkv
  4. Format : Matroska
  5. Format version : Version 4 / Version 2
  6. File size : 8.62 MiB
  7. Duration : 49 s 135 ms
  8. Overall bit rate mode : Variable
  9. Overall bit rate : 1 472 kb/s
  10. Encoded date : UTC 2017-05-02 06:43:47
  11. Writing application : mkvmerge v11.0.0 ('Alive') 64bit
  12. Writing library : libebml v1.3.4 + libmatroska v1.4.5
  13. Video
  14. ID : 1
  15. Format : HEVC
  16. Format/Info : High Efficiency Video Coding
  17. Codec ID : V_MPEGH/ISO/HEVC
  18. Duration : 49 s 133 ms
  19. Bit rate : 101 kb/s
  20. Width : 1 920 pixels
  21. Height : 1 080 pixels
  22. Display aspect ratio : 16:9
  23. Frame rate mode : Constant
  24. Frame rate : 23.976 FPS
  25. Bits/(Pixel*Frame) : 0.002
  26. Stream size : 608 KiB (7%)
  27. Default : Yes
  28. Forced : No
  29. Audio
  30. ID : 2
  31. Format : FLAC
  32. Format/Info : Free Lossless Audio Codec
  33. Codec ID : A_FLAC
  34. Duration : 49 s 135 ms
  35. Bit rate mode : Variable
  36. Bit rate : 1 367 kb/s
  37. Channel(s) : 2 channels
  38. Channel positions : Front: L R
  39. Sampling rate : 48.0 kHz
  40. Frame rate : 11.723 FPS (4095 spf)
  41. Bit depth : 24 bits
  42. Stream size : 8.01 MiB (93%)
  43. Writing library : libFLAC 1.2.1 (UTC 2007-09-17)
  44. Default : Yes
  45. Forced : No
Comments powered by Disqus