1. General
  2. Unique ID : 229404918642469933926183581236147449998 (0xAC95C7BC84EBC205933C89547DD6F08E)
  3. Complete name : Angel-A 2005 BluRay 1080p DTS-HD MA5.1 x264-HDS/Angel-A 2005 BluRay 1080p DTS-HD MA5.1 x264-HDS.mkv
  4. Format : Matroska
  5. Format version : Version 2
  6. File size : 9.80 GiB
  7. Duration : 1 h 30 min
  8. Overall bit rate : 15.5 Mb/s
  9. Encoded date : UTC 2012-07-19 13:03:55
  10. Writing application : mkvmerge v4.5.0 ('Speed of Light') 编译于 Feb 1 2011 02:10:32
  11. Writing library : libebml v1.2.0 + libmatroska v1.1.0
  12. Video
  13. ID : 1
  14. Format : AVC
  15. Format/Info : Advanced Video Codec
  16. Format profile : [email protected]
  17. Format settings : CABAC / 5 Ref Frames
  18. Format settings, CABAC : Yes
  19. Format settings, Reference frames : 5 frames
  20. Muxing mode : Header stripping
  21. Codec ID : V_MPEG4/ISO/AVC
  22. Duration : 1 h 30 min
  23. Bit rate : 12.5 Mb/s
  24. Width : 1 920 pixels
  25. Height : 816 pixels
  26. Display aspect ratio : 2.35:1
  27. Frame rate mode : Constant
  28. Frame rate : 24.000 FPS
  29. Color space : YUV
  30. Chroma subsampling : 4:2:0
  31. Bit depth : 8 bits
  32. Scan type : Progressive
  33. Bits/(Pixel*Frame) : 0.331
  34. Stream size : 7.69 GiB (79%)
  35. Writing library : x264 core 115 r2008 4c552d8
  36. Encoding settings : cabac=1 / ref=5 / deblock=1:-3:-2 / analyse=0x3:0x113 / me=tesa / subme=9 / psy=1 / psy_rd=1.00:0.00 / mixed_ref=1 / me_range=16 / chroma_me=1 / trellis=2 / 8x8dct=1 / cqm=0 / deadzone=21,11 / fast_pskip=0 / chroma_qp_offset=-2 / threads=24 / sliced_threads=0 / nr=0 / decimate=0 / interlaced=0 / bluray_compat=0 / constrained_intra=0 / bframes=8 / b_pyramid=0 / b_adapt=2 / b_bias=0 / direct=3 / weightb=1 / open_gop=0 / weightp=2 / keyint=600 / keyint_min=1 / scenecut=40 / intra_refresh=0 / rc_lookahead=40 / rc=2pass / mbtree=1 / bitrate=12454 / ratetol=1.0 / qcomp=0.60 / qpmin=10 / qpmax=51 / qpstep=4 / cplxblur=20.0 / qblur=0.5 / vbv_maxrate=50000 / vbv_bufsize=50000 / nal_hrd=none / ip_ratio=1.40 / aq=1:1.00
  37. Language : English
  38. Default : Yes
  39. Forced : No
  40. Audio
  41. ID : 2
  42. Format : DTS XBR
  43. Format/Info : Digital Theater Systems
  44. Commercial name : DTS-HD High Resolution Audio
  45. Muxing mode : Header stripping
  46. Codec ID : A_DTS
  47. Duration : 1 h 30 min
  48. Bit rate mode : Constant
  49. Bit rate : 3 018 kb/s
  50. Channel(s) : 6 channels
  51. Channel layout : C L R Ls Rs LFE
  52. Sampling rate : 48.0 kHz
  53. Frame rate : 93.750 FPS (512 SPF)
  54. Bit depth : 24 bits
  55. Compression mode : Lossy
  56. Stream size : 1.91 GiB (20%)
  57. Language : French
  58. Default : Yes
  59. Forced : No
Comments powered by Disqus