1. e12 is e13 and e13 is e12
  2. Release Name..: House S03 1080p BluRay REMUX AVC DTS-EPSiLON
  3. Video.........: 1080p AVC @ ~22999 kbps
  4. Audio #1......: DTS 5.1 @ 768 kbps
  5. Commentary....: Episode 15 / Dolby Digital 2.0 @ 192 kbps
  6. Chapters......: Yes (Not Named)
  7. Source........: House S03 1080p EUR Blu-ray AVC DTS 5.1-TayTO (Thanks!)
  8. Notes.........: Enjoy.
  9. General
  10. Unique ID : 113432974550861279141431141023729609938 (0x5556656FC7156EA3259382534EF46CD2)
  11. Complete name : House.S03E15.Half-Wit.1080p.BluRay.REMUX.AVC.DTS.5.1-EPSiLON.mkv
  12. Format : Matroska
  13. Format version : Version 4 / Version 2
  14. File size : 7.51 GiB
  15. Duration : 44 min 25 s
  16. Overall bit rate mode : Variable
  17. Overall bit rate : 24.2 Mb/s
  18. Encoded date : UTC 2017-05-08 00:14:27
  19. Writing application : mkvmerge v9.6.0 ('Slave To Your Mind') 64bit
  20. Writing library : libebml v1.3.4 + libmatroska v1.4.5
  21. Video
  22. ID : 1
  23. Format : AVC
  24. Format/Info : Advanced Video Codec
  25. Format profile : [email protected]
  26. Format settings, CABAC : Yes
  27. Format settings, ReFrames : 4 frames
  28. Codec ID : V_MPEG4/ISO/AVC
  29. Duration : 44 min 25 s
  30. Bit rate mode : Variable
  31. Bit rate : 22.9 Mb/s
  32. Maximum bit rate : 33.0 Mb/s
  33. Width : 1 920 pixels
  34. Height : 1 080 pixels
  35. Display aspect ratio : 16:9
  36. Frame rate mode : Constant
  37. Frame rate : 23.976 (24000/1001) FPS
  38. Color space : YUV
  39. Chroma subsampling : 4:2:0
  40. Bit depth : 8 bits
  41. Scan type : Progressive
  42. Bits/(Pixel*Frame) : 0.460
  43. Stream size : 7.10 GiB (94%)
  44. Title : MPEG-4 AVC Video / ~23988 kbps / 1080p / 23.976 fps / 16:9 / High Profile 4.1
  45. Language : English
  46. Default : Yes
  47. Forced : No
  48. Audio #1
  49. ID : 2
  50. Format : DTS
  51. Format/Info : Digital Theater Systems
  52. Mode : 16
  53. Format settings, Endianness : Big
  54. Codec ID : A_DTS
  55. Duration : 44 min 25 s
  56. Bit rate mode : Constant
  57. Bit rate : 768 kb/s
  58. Channel(s) : 6 channels
  59. Channel positions : Front: L C R, Side: L R, LFE
  60. Sampling rate : 48.0 kHz
  61. Frame rate : 93.750 FPS (512 spf)
  62. Bit depth : 24 bits
  63. Compression mode : Lossy
  64. Stream size : 244 MiB (3%)
  65. Title : DTS Audio / 5.1 / 48 kHz / 768 kbps / 16-bit
  66. Language : English
  67. Default : Yes
  68. Forced : No
  69. Audio #2
  70. ID : 3
  71. Format : AC-3
  72. Format/Info : Audio Coding 3
  73. Format settings, Endianness : Big
  74. Codec ID : A_AC3
  75. Duration : 44 min 25 s
  76. Bit rate mode : Constant
  77. Bit rate : 192 kb/s
  78. Channel(s) : 2 channels
  79. Channel positions : Front: L R
  80. Sampling rate : 48.0 kHz
  81. Frame rate : 31.250 FPS (1536 spf)
  82. Bit depth : 16 bits
  83. Compression mode : Lossy
  84. Stream size : 61.0 MiB (1%)
  85. Title : Commentary by Cast, Crew or Special Guest (Dolby Digital Audio / 2.0 / 48 kHz / 192 kbps / 16-bit)
  86. Language : English
  87. Service kind : Complete Main
  88. Default : No
  89. Forced : No
  90. Text #1
  91. ID : 4
  92. Format : PGS
  93. Codec ID : S_HDMV/PGS
  94. Codec ID/Info : Picture based subtitle format used on BDs/HD-DVDs
  95. Duration : 42 min 49 s
  96. Bit rate : 66.7 kb/s
  97. Count of elements : 1444
  98. Stream size : 20.4 MiB (0%)
  99. Language : English
  100. Default : No
  101. Forced : No
  102. Text #2
  103. ID : 5
  104. Format : PGS
  105. Codec ID : S_HDMV/PGS
  106. Codec ID/Info : Picture based subtitle format used on BDs/HD-DVDs
  107. Duration : 42 min 37 s
  108. Bit rate : 32.1 kb/s
  109. Count of elements : 1216
  110. Stream size : 9.78 MiB (0%)
  111. Language : Japanese
  112. Default : No
  113. Forced : No
  114. Text #3
  115. ID : 6
  116. Format : PGS
  117. Codec ID : S_HDMV/PGS
  118. Codec ID/Info : Picture based subtitle format used on BDs/HD-DVDs
  119. Duration : 42 min 37 s
  120. Bit rate : 51.3 kb/s
  121. Count of elements : 1136
  122. Stream size : 15.6 MiB (0%)
  123. Language : French
  124. Default : No
  125. Forced : No
  126. Text #4
  127. ID : 7
  128. Format : PGS
  129. Codec ID : S_HDMV/PGS
  130. Codec ID/Info : Picture based subtitle format used on BDs/HD-DVDs
  131. Duration : 42 min 38 s
  132. Bit rate : 68.1 kb/s
  133. Count of elements : 1084
  134. Stream size : 20.8 MiB (0%)
  135. Language : German
  136. Default : No
  137. Forced : No
  138. Text #5
  139. ID : 8
  140. Format : PGS
  141. Codec ID : S_HDMV/PGS
  142. Codec ID/Info : Picture based subtitle format used on BDs/HD-DVDs
  143. Duration : 42 min 37 s
  144. Bit rate : 60.2 kb/s
  145. Count of elements : 1224
  146. Stream size : 18.3 MiB (0%)
  147. Language : Spanish
  148. Default : No
  149. Forced : No
  150. Text #6
  151. ID : 9
  152. Format : PGS
  153. Codec ID : S_HDMV/PGS
  154. Codec ID/Info : Picture based subtitle format used on BDs/HD-DVDs
  155. Duration : 42 min 37 s
  156. Bit rate : 58.9 kb/s
  157. Count of elements : 1228
  158. Stream size : 17.9 MiB (0%)
  159. Language : Portuguese
  160. Default : No
  161. Forced : No
  162. Text #7
  163. ID : 10
  164. Format : PGS
  165. Codec ID : S_HDMV/PGS
  166. Codec ID/Info : Picture based subtitle format used on BDs/HD-DVDs
  167. Duration : 42 min 38 s
  168. Bit rate : 48.4 kb/s
  169. Count of elements : 814
  170. Stream size : 14.8 MiB (0%)
  171. Language : Dutch
  172. Default : No
  173. Forced : No
  174. Menu
  175. 00:00:00.000 : en: Chapter 1 Chapter 1
  176. 00:03:05.769 : en: Chapter 2 Chapter 2
  177. 00:11:39.949 : en: Chapter 3 Chapter 3
  178. 00:21:16.692 : en: Chapter 4 Chapter 4
  179. 00:30:11.351 : en: Chapter 5 Chapter 5
  180. 00:43:43.788 : en: Chapter 6 Chapter 6
Comments powered by Disqus