1. Video : AVC @ ~23244 kbps
  2. Audio : DTS-HD MA 5.1 @ ~2124 kbps
  3. Chapters : Yes (Not named)
  4. Source : Justified.S06.MULTiSUBS.COMPLETE.BLURAY-HD_Leaks (Thanks!)
  5. General
  6. Unique ID : 276937495955372692297235422421587616266 (0xD05838BBFBE2CECA5EC7FE0C1A68620A)
  7. Complete name : Justified.S06E01.Fate's.Right.Hand.1080p.BluRay.REMUX.AVC.DTS-HD.MA.5.1-EPSiLON.mkv
  8. Format : Matroska
  9. Format version : Version 4 / Version 2
  10. File size : 8.21 GiB
  11. Duration : 50mn 33s
  12. Overall bit rate mode : Variable
  13. Overall bit rate : 23.3 Mbps
  14. Encoded date : UTC 2017-03-22 09:40:45
  15. Writing application : mkvmerge v9.9.0 ('Pick Up') 64bit
  16. Writing library : libebml v1.3.4 + libmatroska v1.4.5
  17. Video
  18. ID : 1
  19. Format : AVC
  20. Format/Info : Advanced Video Codec
  21. Format profile : [email protected]
  22. Format settings, CABAC : Yes
  23. Format settings, ReFrames : 2 frames
  24. Codec ID : V_MPEG4/ISO/AVC
  25. Duration : 50mn 33s
  26. Bit rate mode : Variable
  27. Bit rate : 20.8 Mbps
  28. Width : 1 920 pixels
  29. Height : 1 080 pixels
  30. Display aspect ratio : 16:9
  31. Frame rate mode : Constant
  32. Frame rate : 23.976 (24000/1001) fps
  33. Color space : YUV
  34. Chroma subsampling : 4:2:0
  35. Bit depth : 8 bits
  36. Scan type : Progressive
  37. Bits/(Pixel*Frame) : 0.419
  38. Stream size : 7.35 GiB (90%)
  39. Title : MPEG-4 AVC Video / 20830 kbps / 1080p / 23.976 fps / 16:9 / High Profile 4.1
  40. Default : Yes
  41. Forced : No
  42. Audio
  43. ID : 2
  44. Format : DTS
  45. Format/Info : Digital Theater Systems
  46. Format profile : MA / Core
  47. Mode : 16
  48. Format settings, Endianness : Big
  49. Codec ID : A_DTS
  50. Duration : 50mn 33s
  51. Bit rate mode : Variable / Constant
  52. Bit rate : 2 180 Kbps / 1 509 Kbps
  53. Channel(s) : 6 channels
  54. Channel positions : Front: L C R, Side: L R, LFE
  55. Sampling rate : 48.0 KHz
  56. Frame rate : 93.750 fps (512 spf)
  57. Bit depth : 16 bits
  58. Compression mode : Lossless / Lossy
  59. Stream size : 788 MiB (9%)
  60. Title : DTS-HD Master Audio / 5.1 / 48 kHz / 2180 kbps / 16-bit
  61. Language : English
  62. Default : Yes
  63. Forced : No
  64. Text #1
  65. ID : 3
  66. Format : PGS
  67. Codec ID : S_HDMV/PGS
  68. Codec ID/Info : Picture based subtitle format used on BDs/HD-DVDs
  69. Duration : 49mn 15s
  70. Bit rate : 41.9 Kbps
  71. Count of elements : 1504
  72. Stream size : 14.8 MiB (0%)
  73. Language : English
  74. Default : No
  75. Forced : No
  76. Text #2
  77. ID : 4
  78. Format : PGS
  79. Codec ID : S_HDMV/PGS
  80. Codec ID/Info : Picture based subtitle format used on BDs/HD-DVDs
  81. Duration : 49mn 15s
  82. Bit rate : 42.1 Kbps
  83. Count of elements : 1530
  84. Stream size : 14.8 MiB (0%)
  85. Language : Danish
  86. Default : No
  87. Forced : No
  88. Text #3
  89. ID : 5
  90. Format : PGS
  91. Codec ID : S_HDMV/PGS
  92. Codec ID/Info : Picture based subtitle format used on BDs/HD-DVDs
  93. Duration : 49mn 15s
  94. Bit rate : 38.3 Kbps
  95. Count of elements : 1528
  96. Stream size : 13.5 MiB (0%)
  97. Language : Finnish
  98. Default : No
  99. Forced : No
  100. Text #4
  101. ID : 6
  102. Format : PGS
  103. Codec ID : S_HDMV/PGS
  104. Codec ID/Info : Picture based subtitle format used on BDs/HD-DVDs
  105. Duration : 49mn 15s
  106. Bit rate : 40.8 Kbps
  107. Count of elements : 1538
  108. Stream size : 14.4 MiB (0%)
  109. Language : Italian
  110. Default : No
  111. Forced : No
  112. Text #5
  113. ID : 7
  114. Format : PGS
  115. Codec ID : S_HDMV/PGS
  116. Codec ID/Info : Picture based subtitle format used on BDs/HD-DVDs
  117. Duration : 49mn 15s
  118. Bit rate : 41.2 Kbps
  119. Count of elements : 1532
  120. Stream size : 14.5 MiB (0%)
  121. Language : Norwegian
  122. Default : No
  123. Forced : No
  124. Text #6
  125. ID : 8
  126. Format : PGS
  127. Codec ID : S_HDMV/PGS
  128. Codec ID/Info : Picture based subtitle format used on BDs/HD-DVDs
  129. Duration : 50mn 24s
  130. Bit rate : 40.5 Kbps
  131. Count of elements : 1536
  132. Stream size : 14.6 MiB (0%)
  133. Language : Swedish
  134. Default : No
  135. Forced : No
  136. Menu
  137. 00:00:00.000 : en:Chapter 1
  138. 00:01:00.060 : en:Chapter 2
  139. 00:09:49.798 : en:Chapter 3
  140. 00:16:16.642 : en:Chapter 4
  141. 00:26:47.731 : en:Chapter 5
  142. 00:31:09.117 : en:Chapter 6
  143. 00:38:23.051 : en:Chapter 7
  144. 00:49:52.865 : en:Chapter 8
Comments powered by Disqus