1. The Silence of the Lambs (1991)
  2. Crime, Drama, Thriller
  3. Ratings: 8.6 / 10
  4. Votes: 954,248 People
  5. Directed by Jonathan Demme. With Jodie Foster, Anthony Hopkins, Lawrence A. Bonney, Kasi Lemmons. A young F.B.I. cadet must confide in an incarcerated and manipulative killer to receive his help on catching another serial killer who skins his victims.
  6. Actors: Jodie Foster, Anthony Hopkins, Lawrence A. Bonney
  7. More Information
  8. Video
  9. ID : 1
  10. Format : MPEG Video
  11. Format version : Version 2
  12. Format profile : [email protected]
  13. Format settings, BVOP : Yes
  14. Format settings, Matrix : Custom
  15. Format settings, GOP : M=3, N=12
  16. Codec ID : V_MPEG2
  17. Codec ID/Info : MPEG 1 or 2 Video
  18. Duration : 1h 58mn
  19. Bit rate mode : Variable
  20. Maximum bit rate : 40.0 Mbps
  21. Width : 1 920 pixels
  22. Height : 1 080 pixels
  23. Display aspect ratio : 16:9
  24. Frame rate mode : Constant
  25. Frame rate : 23.976 (24000/1001) fps
  26. Color space : YUV
  27. Chroma subsampling : 4:2:0
  28. Bit depth : 8 bits
  29. Scan type : Progressive
  30. Compression mode : Lossy
  31. Time code of first frame : 00:00:00:00
  32. Time code source : Group of pictures header
  33. GOP, Open/Closed : Open
  34. GOP, Open/Closed of first frame : Closed
  35. Title : The.Silence.of.the.Lambs.1991.1080p.BluRay.REMUX.MPEG-2.DTS-HD.MA.5.1-FGT
  36. Language : English
  37. Default : No
  38. Forced : No
  39. Audio #1
  40. ID : 2
  41. Format : DTS
  42. Format/Info : Digital Theater Systems
  43. Format profile : MA / Core
  44. Mode : 16
  45. Format settings, Endianness : Big
  46. Codec ID : A_DTS
  47. Duration : 1h 58mn
  48. Bit rate mode : Variable / Constant
  49. Bit rate : Unknown / 1 509 Kbps
  50. Channel(s) : 6 channels
  51. Channel positions : Front: L C R, Side: L R, LFE
  52. Sampling rate : 48.0 KHz
  53. Frame rate : 93.750 fps (512 spf)
  54. Bit depth : 24 bits
  55. Compression mode : Lossless / Lossy
  56. Title : The.Silence.of.the.Lambs.1991.1080p.BluRay.REMUX.MPEG-2.DTS-HD.MA.5.1-FGT
  57. Language : English
  58. Default : Yes
  59. Forced : No
  60. Audio #2
  61. ID : 3
  62. Format : DTS
  63. Format/Info : Digital Theater Systems
  64. Mode : 16
  65. Format settings, Endianness : Big
  66. Codec ID : A_DTS
  67. Duration : 1h 58mn
  68. Bit rate mode : Constant
  69. Bit rate : 1 509 Kbps
  70. Channel(s) : 6 channels
  71. Channel positions : Front: L C R, Side: L R, LFE
  72. Sampling rate : 48.0 KHz
  73. Frame rate : 93.750 fps (512 spf)
  74. Bit depth : 24 bits
  75. Compression mode : Lossy
  76. Stream size : 1.25 GiB (6%)
  77. Title : The.Silence.of.the.Lambs.1991.1080p.BluRay.REMUX.MPEG-2.DTS-HD.MA.5.1-FGT
  78. Language : English
  79. Default : No
  80. Forced : No
  81. Audio #3
  82. ID : 4
  83. Format : AC-3
  84. Format/Info : Audio Coding 3
  85. Mode extension : CM (complete main)
  86. Format settings, Endianness : Big
  87. Codec ID : A_AC3
  88. Duration : 1h 58mn
  89. Bit rate mode : Constant
  90. Bit rate : 448 Kbps
  91. Channel(s) : 6 channels
  92. Channel positions : Front: L C R, Side: L R, LFE
  93. Sampling rate : 48.0 KHz
  94. Frame rate : 31.250 fps (1536 spf)
  95. Compression mode : Lossy
  96. Stream size : 380 MiB (2%)
  97. Title : The.Silence.of.the.Lambs.1991.1080p.BluRay.REMUX.MPEG-2.DTS-HD.MA.5.1-FGT
  98. Language : Spanish
  99. Default : No
  100. Forced : No
  101. Audio #4
  102. ID : 5
  103. Format : AC-3
  104. Format/Info : Audio Coding 3
  105. Mode extension : CM (complete main)
  106. Format settings, Endianness : Big
  107. Codec ID : A_AC3
  108. Duration : 1h 58mn
  109. Bit rate mode : Constant
  110. Bit rate : 448 Kbps
  111. Channel(s) : 6 channels
  112. Channel positions : Front: L C R, Side: L R, LFE
  113. Sampling rate : 48.0 KHz
  114. Frame rate : 31.250 fps (1536 spf)
  115. Compression mode : Lossy
  116. Stream size : 380 MiB (2%)
  117. Title : The.Silence.of.the.Lambs.1991.1080p.BluRay.REMUX.MPEG-2.DTS-HD.MA.5.1-FGT
  118. Language : French
  119. Default : No
  120. Forced : No
  121. Audio #5
  122. ID : 6
  123. Format : AC-3
  124. Format/Info : Audio Coding 3
  125. Format profile : Dolby Digital
  126. Mode extension : CM (complete main)
  127. Format settings, Endianness : Big
  128. Codec ID : A_AC3
  129. Duration : 1h 58mn
  130. Bit rate mode : Constant
  131. Bit rate : 224 Kbps
  132. Channel(s) : 2 channels
  133. Channel positions : Front: L R
  134. Sampling rate : 48.0 KHz
  135. Frame rate : 31.250 fps (1536 spf)
  136. Compression mode : Lossy
  137. Stream size : 190 MiB (1%)
  138. Title : The.Silence.of.the.Lambs.1991.1080p.BluRay.REMUX.MPEG-2.DTS-HD.MA.5.1-FGT
  139. Language : Thai
  140. Default : No
  141. Forced : No
  142. Text #1
  143. ID : 7
  144. Format : PGS
  145. Muxing mode : zlib
  146. Codec ID : S_HDMV/PGS
  147. Codec ID/Info : Picture based subtitle format used on BDs/HD-DVDs
  148. Title : English-PGS
  149. Language : English
  150. Default : No
  151. Forced : No
  152. Text #2
  153. ID : 8
  154. Format : PGS
  155. Muxing mode : zlib
  156. Codec ID : S_HDMV/PGS
  157. Codec ID/Info : Picture based subtitle format used on BDs/HD-DVDs
  158. Title : Spanish-PGS
  159. Language : Spanish
  160. Default : No
  161. Forced : No
  162. Text #3
  163. ID : 9
  164. Format : PGS
  165. Muxing mode : zlib
  166. Codec ID : S_HDMV/PGS
  167. Codec ID/Info : Picture based subtitle format used on BDs/HD-DVDs
  168. Title : Spanish-FORCED-PGS
  169. Language : Spanish
  170. Default : No
  171. Forced : No
  172. Text #4
  173. ID : 10
  174. Format : PGS
  175. Muxing mode : zlib
  176. Codec ID : S_HDMV/PGS
  177. Codec ID/Info : Picture based subtitle format used on BDs/HD-DVDs
  178. Title : Korean-PGS
  179. Language : Korean
  180. Default : No
  181. Forced : No
  182. Text #5
  183. ID : 11
  184. Format : PGS
  185. Muxing mode : zlib
  186. Codec ID : S_HDMV/PGS
  187. Codec ID/Info : Picture based subtitle format used on BDs/HD-DVDs
  188. Title : Chinese-PGS
  189. Language : Chinese
  190. Default : No
  191. Forced : No
  192. Text #6
  193. ID : 12
  194. Format : PGS
  195. Muxing mode : zlib
  196. Codec ID : S_HDMV/PGS
  197. Codec ID/Info : Picture based subtitle format used on BDs/HD-DVDs
  198. Title : Chinese-PGS
  199. Language : Chinese
  200. Default : No
  201. Forced : No
  202. Text #7
  203. ID : 13
  204. Format : PGS
  205. Muxing mode : zlib
  206. Codec ID : S_HDMV/PGS
  207. Codec ID/Info : Picture based subtitle format used on BDs/HD-DVDs
  208. Title : Thai-PGS
  209. Language : Thai
  210. Default : No
  211. Forced : No
  212. Text #8
  213. ID : 14
  214. Format : PGS
  215. Muxing mode : zlib
  216. Codec ID : S_HDMV/PGS
  217. Codec ID/Info : Picture based subtitle format used on BDs/HD-DVDs
  218. Title : Thai-FORCED-PGS
  219. Language : Thai
  220. Default : No
  221. Forced : No
  222. Text #9
  223. ID : 15
  224. Format : PGS
  225. Muxing mode : zlib
  226. Codec ID : S_HDMV/PGS
  227. Codec ID/Info : Picture based subtitle format used on BDs/HD-DVDs
  228. Title : French-PGS
  229. Language : French
  230. Default : No
  231. Forced : No
  232. Text #10
  233. ID : 16
  234. Format : PGS
  235. Muxing mode : zlib
  236. Codec ID : S_HDMV/PGS
  237. Codec ID/Info : Picture based subtitle format used on BDs/HD-DVDs
  238. Title : French-FORCED-PGS
  239. Language : French
  240. Default : No
  241. Forced : No
  242. http://imdb.com/title/tt0102926/
Comments powered by Disqus