1. Format : Matroska
  2. Format version : Version 4 / Version 2
  3. File size : 1.91 GiB
  4. Duration : 1h 45mn
  5. Overall bit rate : 2 596 Kbps
  6. Movie name : Daylights.End.2016.1080p.BluRay.6CH.1.9GB.MkvCage
  7. Encoded date : UTC 2016-07-30 07:08:04
  8. Writing application : mkvmerge v7.9.0 ('Birds') 32bit
  9. Writing library : libebml v1.3.1 + libmatroska v1.4.2
  10. Video
  11. ID : 2
  12. Format : AVC
  13. Format/Info : Advanced Video Codec
  14. Format profile : [email protected]
  15. Format settings, CABAC : Yes
  16. Format settings, ReFrames : 5 frames
  17. Codec ID : V_MPEG4/ISO/AVC
  18. Duration : 1h 45mn
  19. Bit rate : 2 407 Kbps
  20. Width : 1 920 pixels
  21. Height : 796 pixels
  22. Display aspect ratio : 2.40:1
  23. Frame rate mode : Constant
  24. Frame rate : 23.976 (24000/1001) fps
  25. Color space : YUV
  26. Chroma subsampling : 4:2:0
  27. Bit depth : 8 bits
  28. Scan type : Progressive
  29. Bits/(Pixel*Frame) : 0.066
  30. Stream size : 1.77 GiB (93%)
  31. Writing library : x264 core 146 r2538 121396c
  32. Encoding settings : cabac=1 / ref=5 / deblock=1:-1:-1 / analyse=0x3:0x113 / me=umh / subme=8 / psy=1 / psy_rd=1.00:0.00 / mixed_ref=1 / me_range=16 / chroma_me=1 / trellis=1 / 8x8dct=1 / cqm=0 / deadzone=21,11 / fast_pskip=1 / chroma_qp_offset=-2 / threads=60 / lookahead_threads=6 / sliced_threads=0 / nr=0 / decimate=1 / interlaced=0 / bluray_compat=0 / constrained_intra=0 / bframes=3 / b_pyramid=2 / b_adapt=2 / b_bias=0 / direct=3 / weightb=1 / open_gop=0 / weightp=2 / keyint=240 / keyint_min=23 / scenecut=40 / intra_refresh=0 / rc_lookahead=50 / rc=2pass / mbtree=1 / bitrate=2407 / ratetol=1.0 / qcomp=0.60 / qpmin=10 / qpmax=51 / qpstep=4 / cplxblur=20.0 / qblur=0.5 / vbv_maxrate=62500 / vbv_bufsize=78125 / nal_hrd=none / filler=0 / ip_ratio=1.40 / aq=1:1.00
  33. Default : Yes
  34. Forced : No
  35. Audio
  36. ID : 1
  37. Format : AAC
  38. Format/Info : Advanced Audio Codec
  39. Format profile : HE-AAC / LC
  40. Codec ID : A_AAC
  41. Duration : 1h 45mn
  42. Bit rate : 192 Kbps
  43. Channel(s) : 6 channels
  44. Channel positions : Front: L C R, Side: L R, LFE
  45. Sampling rate : 48.0 KHz / 24.0 KHz
  46. Frame rate : 23.438 fps (1024 spf)
  47. Compression mode : Lossy
  48. Delay relative to video : 31ms
  49. Stream size : 142 MiB (7%)
  50. Language : English
  51. Default : Yes
  52. Forced : No
Comments powered by Disqus