1. Format : Matroska
  2. Format version : Version 4
  3. File size : 900 MiB
  4. Duration : 1 h 33 min
  5. Overall bit rate : 1 339 kb/s
  6. Movie name : The.Hustle.2019.720p.BRRip.x264-MkvCage.com
  7. Encoded date : UTC 2019-08-12 22:15:46
  8. Writing application : mkvmerge v35.0.0 ('All The Love In The World') 64-bit
  9. Writing library : libebml v1.3.9 + libmatroska v1.5.2
  10. Video
  11. ID : 1
  12. Format : AVC
  13. Format/Info : Advanced Video Codec
  14. Format profile : [email protected]
  15. Format settings : CABAC / 12 Ref Frames
  16. Format settings, CABAC : Yes
  17. Format settings, Reference frames : 12 frames
  18. Codec ID : V_MPEG4/ISO/AVC
  19. Duration : 1 h 33 min
  20. Bit rate : 1 237 kb/s
  21. Width : 1 280 pixels
  22. Height : 538 pixels
  23. Display aspect ratio : 2.40:1
  24. Frame rate mode : Constant
  25. Frame rate : 23.976 (24000/1001) FPS
  26. Color space : YUV
  27. Chroma subsampling : 4:2:0
  28. Bit depth : 8 bits
  29. Scan type : Progressive
  30. Bits/(Pixel*Frame) : 0.075
  31. Stream size : 831 MiB (92%)
  32. Writing library : x264 core 157 r2935 545de2f
  33. Encoding settings : cabac=1 / ref=12 / deblock=1:-1:-1 / analyse=0x3:0x133 / me=umh / subme=10 / psy=1 / psy_rd=1.00:0.10 / mixed_ref=1 / me_range=24 / chroma_me=1 / trellis=2 / 8x8dct=1 / cqm=0 / deadzone=21,11 / fast_pskip=1 / chroma_qp_offset=-3 / threads=17 / lookahead_threads=2 / sliced_threads=0 / nr=0 / decimate=1 / interlaced=0 / bluray_compat=0 / constrained_intra=0 / bframes=8 / b_pyramid=2 / b_adapt=2 / b_bias=0 / direct=3 / weightb=1 / open_gop=0 / weightp=2 / keyint=250 / keyint_min=23 / scenecut=40 / intra_refresh=0 / rc_lookahead=60 / rc=2pass / mbtree=1 / bitrate=1237 / ratetol=1.0 / qcomp=0.60 / qpmin=0 / qpmax=69 / qpstep=4 / cplxblur=20.0 / qblur=0.5 / ip_ratio=1.40 / aq=1:1.00
  34. Default : Yes
  35. Forced : No
  36. Audio
  37. ID : 2
  38. Format : AAC LC SBR
  39. Format/Info : Advanced Audio Codec Low Complexity with Spectral Band Replication
  40. Commercial name : HE-AAC
  41. Format settings : Explicit
  42. Codec ID : A_AAC-2
  43. Duration : 1 h 33 min
  44. Bit rate : 100.0 kb/s
  45. Channel(s) : 2 channels
  46. Channel layout : L R
  47. Sampling rate : 48.0 kHz
  48. Frame rate : 23.438 FPS (2048 SPF)
  49. Compression mode : Lossy
  50. Delay relative to video : 43 ms
  51. Stream size : 67.2 MiB (7%)
  52. Language : English
  53. Default : Yes
  54. Forced : No
  55. Text #1
  56. ID : 3
  57. Format : UTF-8
  58. Codec ID : S_TEXT/UTF8
  59. Codec ID/Info : UTF-8 Plain Text
  60. Duration : 1 h 33 min
  61. Bit rate : 76 b/s
  62. Count of elements : 1755
  63. Stream size : 52.2 KiB (0%)
  64. Title : HI
  65. Language : English
  66. Default : Yes
  67. Forced : No
  68. Text #2
  69. ID : 4
  70. Format : UTF-8
  71. Codec ID : S_TEXT/UTF8
  72. Codec ID/Info : UTF-8 Plain Text
  73. Duration : 1 h 32 min
  74. Bit rate : 72 b/s
  75. Count of elements : 1642
  76. Stream size : 49.0 KiB (0%)
  77. Language : English
  78. Default : No
  79. Forced : No
  80. Menu
  81. 00:00:00.000 : en:00:00:00.000
  82. 00:05:58.858 : en:00:05:58.858
  83. 00:09:56.137 : en:00:09:56.137
  84. 00:15:29.554 : en:00:15:29.554
  85. 00:21:12.646 : en:00:21:12.646
  86. 00:25:19.852 : en:00:25:19.852
  87. 00:32:26.903 : en:00:32:26.903
  88. 00:37:56.608 : en:00:37:56.608
  89. 00:41:51.300 : en:00:41:51.300
  90. 00:44:55.818 : en:00:44:55.818
  91. 00:49:56.327 : en:00:49:56.327
  92. 00:54:34.897 : en:00:54:34.897
  93. 00:59:16.261 : en:00:59:16.261
  94. 01:02:15.899 : en:01:02:15.899
  95. 01:06:47.587 : en:01:06:47.587
  96. 01:09:58.152 : en:01:09:58.152
  97. 01:15:16.178 : en:01:15:16.178
  98. 01:21:37.059 : en:01:21:37.059
  99. 01:28:58.833 : en:01:28:58.833
  100. 01:32:27.041 : en:01:32:27.041
Comments powered by Disqus