1. greetings to ARIO MKVTONY NATASHA IN HOLLAND LOETING IN BELGUIM CARLINE IN VIRGINIA GRAPES IN LONDON AND FRIENDS OF MINE!!!!
  2. links dead visit http://scene-rls.net/ for trusted downloads
  3. come and say hello in chatroom
  4. https://scene-release.ishoutbox.com/
  5. dddd=dont dare download dat
  6. General
  7. Complete name : C:\Users\ddddrelease\Desktop\How.To.Make.Love.Like.An.Englishman.2014.720p.BluRay.DD5.1.x264-CRiME.mp4
  8. Format : MPEG-4
  9. Format profile : Base Media
  10. Codec ID : isom (isom/iso2/avc1/mp41)
  11. File size : 549 MiB
  12. Duration : 1 h 39 min
  13. Overall bit rate mode : Constant
  14. Overall bit rate : 773 kb/s
  15. Movie name : ddddrelease rlsbb.ru
  16. Album : ddddrelease rlsbb.ru
  17. Album/Performer : ddddrelease rlsbb.ru
  18. Performer : ddddrelease rlsbb.ru
  19. Composer : ddddrelease rlsbb.ru
  20. Encoded date : UTC 2015-10-16 09:41:24
  21. Tagged date : UTC 2015-10-16 09:41:24
  22. Writing application : Lavf58.12.100
  23. Comment : ddddrelease rlsbb.ru
  24. Video
  25. ID : 1
  26. Format : AVC
  27. Format/Info : Advanced Video Codec
  28. Format profile : [email protected]
  29. Format settings : CABAC / 1 Ref Frames
  30. Format settings, CABAC : Yes
  31. Format settings, Reference frames : 1 frame
  32. Format settings, GOP : M=1, N=25
  33. Codec ID : avc1
  34. Codec ID/Info : Advanced Video Coding
  35. Duration : 1 h 39 min
  36. Bit rate mode : Constant
  37. Bit rate : 512 kb/s
  38. Width : 720 pixels
  39. Height : 480 pixels
  40. Display aspect ratio : 3:2
  41. Frame rate mode : Variable
  42. Frame rate : 23.976 (23976/1000) FPS
  43. Minimum frame rate : 4.000 FPS
  44. Maximum frame rate : 3 428.571 FPS
  45. Original frame rate : 23.976 (24000/1001) FPS
  46. Color space : YUV
  47. Chroma subsampling : 4:2:0
  48. Bit depth : 8 bits
  49. Scan type : Progressive
  50. Bits/(Pixel*Frame) : 0.062
  51. Stream size : 364 MiB (66%)
  52. Title : ENCODE CRiME
  53. Language : English
  54. Encoded date : UTC 2015-10-16 09:41:24
  55. Tagged date : UTC 2015-10-16 09:41:24
  56. Codec configuration box : avcC
  57. Audio
  58. ID : 2
  59. Format : AC-3
  60. Format/Info : Audio Coding 3
  61. Commercial name : Dolby Digital
  62. Codec ID : ac-3
  63. Duration : 1 h 39 min
  64. Bit rate mode : Constant
  65. Bit rate : 256 kb/s
  66. Channel(s) : 2 channels
  67. Channel layout : L R
  68. Sampling rate : 48.0 kHz
  69. Frame rate : 31.250 FPS (1536 SPF)
  70. Compression mode : Lossy
  71. Stream size : 182 MiB (33%)
  72. Language : English
  73. Service kind : Complete Main
  74. Default : Yes
  75. Alternate group : 1
  76. Encoded date : UTC 2015-10-16 09:41:24
  77. Tagged date : UTC 2015-10-16 09:41:24
Comments powered by Disqus