1. Duration : 45 min 51 s
  2. Bit rate : 89 b/s
  3. Count of elements : 639
  4. Stream size : 30.0 KiB (0%)
  5. Language : Vietnamese
  6. Default : No
  7. Forced : No
  8. Text #29
  9. ID : 31
  10. Format : UTF-8
  11. Codec ID : S_TEXT/UTF8
  12. Codec ID/Info : UTF-8 Plain Text
  13. Duration : 45 min 51 s
  14. Bit rate : 64 b/s
  15. Count of elements : 640
  16. Stream size : 21.6 KiB (0%)
  17. Title : Simplified
  18. Language : Chinese
  19. Default : No
  20. Forced : No
  21. Text #30
  22. ID : 32
  23. Format : UTF-8
  24. Codec ID : S_TEXT/UTF8
  25. Codec ID/Info : UTF-8 Plain Text
  26. Duration : 45 min 51 s
  27. Bit rate : 57 b/s
  28. Count of elements : 638
  29. Stream size : 19.4 KiB (0%)
  30. Title : Traditional
  31. Language : Chinese
  32. Default : No
  33. Forced : No
Comments powered by Disqus