1. General
  2. Unique ID : 83746745580597877638460200894069996523 (0x3F01095872C984075D39450B8AB3FBEB)
  3. Complete name : unfired-winterstale-x265.mkv
  4. Format : Matroska
  5. Format version : Version 2
  6. File size : 3.09 GiB
  7. Duration : 1 h 58 min
  8. Overall bit rate : 3 752 kb/s
  9. Encoded date : UTC 2018-06-11 13:24:49
  10. Writing application : mkvmerge v22.0.0 ('At The End Of The World') 64-bit
  11. Writing library : libebml v1.3.5 + libmatroska v1.4.8
  12. Video
  13. ID : 1
  14. Format : HEVC
  15. Format/Info : High Efficiency Video Coding
  16. Format profile : [email protected]@Main
  17. Codec ID : V_MPEGH/ISO/HEVC
  18. Duration : 1 h 58 min
  19. Bit rate : 1 588 kb/s
  20. Width : 1 920 pixels
  21. Height : 800 pixels
  22. Display aspect ratio : 2.40:1
  23. Frame rate mode : Constant
  24. Frame rate : 23.976 (24000/1001) FPS
  25. Color space : YUV
  26. Chroma subsampling : 4:2:0
  27. Bit depth : 8 bits
  28. Bits/(Pixel*Frame) : 0.043
  29. Stream size : 1.31 GiB (42%)
  30. Title : Winters.Tale.2014.German.1080p.DL.AC3.BluRay.AVC.Remux-pmHD
  31. Writing library : x265 2.7+1-2aa737a99f51:[Windows][GCC 7.3.0][64 bit] 8bit+10bit+12bit
  32. Encoding settings : cpuid=1173503 / frame-threads=4 / numa-pools=16 / wpp / no-pmode / no-pme / no-psnr / no-ssim / log-level=2 / input-csp=1 / input-res=1920x800 / interlace=0 / total-frames=169870 / level-idc=0 / high-tier=1 / uhd-bd=0 / ref=4 / no-allow-non-conformance / no-repeat-headers / annexb / no-aud / no-hrd / info / hash=0 / no-temporal-layers / open-gop / min-keyint=23 / keyint=250 / gop-lookahead=0 / bframes=4 / b-adapt=2 / b-pyramid / bframe-bias=0 / rc-lookahead=25 / lookahead-slices=4 / scenecut=40 / radl=0 / no-intra-refresh / ctu=64 / min-cu-size=8 / rect / no-amp / max-tu-size=32 / tu-inter-depth=1 / tu-intra-depth=1 / limit-tu=0 / rdoq-level=2 / dynamic-rd=0.00 / no-ssim-rd / signhide / no-tskip / nr-intra=0 / nr-inter=0 / no-constrained-intra / strong-intra-smoothing / max-merge=3 / limit-refs=3 / limit-modes / me=3 / subme=3 / merange=57 / temporal-mvp / weightp / no-weightb / no-analyze-src-pics / deblock=0:0 / sao / no-sao-non-deblock / rd=4 / no-early-skip / rskip / no-fast-intra / no-tskip-fast / no-cu-lossless / no-b-intra / no-splitrd-skip / rdpenalty=0 / psy-rd=2.00 / psy-rdoq=1.00 / no-rd-refine / no-lossless / cbqpoffs=0 / crqpoffs=0 / rc=crf / crf=19.9 / qcomp=0.60 / qpstep=4 / stats-write=0 / stats-read=0 / ipratio=1.40 / pbratio=1.30 / aq-mode=1 / aq-strength=1.00 / cutree / zone-count=0 / no-strict-cbr / qg-size=32 / no-rc-grain / qpmax=69 / qpmin=0 / no-const-vbv / sar=1 / overscan=0 / videoformat=5 / range=0 / colorprim=2 / transfer=2 / colormatrix=2 / chromaloc=0 / display-window=0 / max-cll=0,0 / min-luma=0 / max-luma=255 / log2-max-poc-lsb=8 / vui-timing-info / vui-hrd-info / slices=1 / no-opt-qp-pps / no-opt-ref-list-length-pps / no-multi-pass-opt-rps / scenecut-bias=0.05 / no-opt-cu-delta-qp / no-aq-motion / no-hdr / no-hdr-opt / no-dhdr10-opt / analysis-reuse-level=5 / scale-factor=0 / refine-intra=0 / refine-inter=0 / refine-mv=0 / no-limit-sao / ctu-info=0 / no-lowpass-dct / refine-mv-type=0 / copy-pic=1
  33. Default : Yes
  34. Forced : No
  35. Audio #1
  36. ID : 2
  37. Format : AC-3
  38. Format/Info : Audio Coding 3
  39. Codec ID : A_AC3
  40. Duration : 1 h 58 min
  41. Bit rate mode : Constant
  42. Bit rate : 640 kb/s
  43. Channel(s) : 6 channels
  44. Channel positions : Front: L C R, Side: L R, LFE
  45. Sampling rate : 48.0 kHz
  46. Frame rate : 31.250 FPS (1536 SPF)
  47. Bit depth : 16 bits
  48. Compression mode : Lossy
  49. Stream size : 541 MiB (17%)
  50. Language : German
  51. Service kind : Complete Main
  52. Default : Yes
  53. Forced : No
  54. Audio #2
  55. ID : 3
  56. Format : DTS
  57. Format/Info : Digital Theater Systems
  58. Codec ID : A_DTS
  59. Duration : 1 h 58 min
  60. Bit rate mode : Constant
  61. Bit rate : 1 509 kb/s
  62. Channel(s) : 6 channels
  63. Channel positions : Front: L C R, Side: L R, LFE
  64. Sampling rate : 48.0 kHz
  65. Frame rate : 93.750 FPS (512 SPF)
  66. Bit depth : 24 bits
  67. Compression mode : Lossy
  68. Stream size : 1.24 GiB (40%)
  69. Language : English
  70. Default : No
  71. Forced : No
  72. Text
  73. ID : 4
  74. Format : PGS
  75. Muxing mode : zlib
  76. Codec ID : S_HDMV/PGS
  77. Codec ID/Info : Picture based subtitle format used on BDs/HD-DVDs
  78. Duration : 1 h 57 min
  79. Bit rate : 27.6 kb/s
  80. Count of elements : 2488
  81. Stream size : 23.2 MiB (1%)
  82. Title : complete
  83. Language : German
  84. Default : No
  85. Forced : No
  86. Menu
  87. 00:00:00.000 : en:00:00:00.000
  88. 00:10:45.854 : en:00:10:45.854
  89. 00:20:09.959 : en:00:20:09.959
  90. 00:30:41.048 : en:00:30:41.048
  91. 00:40:14.454 : en:00:40:14.454
  92. 00:52:37.905 : en:00:52:37.905
  93. 01:00:17.447 : en:01:00:17.447
  94. 01:09:26.996 : en:01:09:26.996
  95. 01:20:44.006 : en:01:20:44.006
  96. 01:30:54.991 : en:01:30:54.991
  97. 01:39:53.654 : en:01:39:53.654
  98. 01:50:38.507 : en:01:50:38.507
Comments powered by Disqus