1. [b]Rio.2.2014.1080p.BluRay.3D.Half-SBS.x264.DTS-RBG[/b]
  2. [url]http://imdb.com/title/tt2357291/[/url]
  3. [b]Info:[/b]
  4. [mediainfo]
  5. Video
  6. ID : 1
  7. Format : AVC
  8. Format/Info : Advanced Video Codec
  9. Format profile : [email protected]
  10. Format settings, CABAC : Yes
  11. Format settings, ReFrames : 5 frames
  12. Codec ID : V_MPEG4/ISO/AVC
  13. Duration : 1h 41mn
  14. Bit rate : 5 335 Kbps
  15. Width : 1 920 pixels
  16. Height : 800 pixels
  17. Display aspect ratio : 2.40:1
  18. Frame rate mode : Constant
  19. Frame rate : 23.976 fps
  20. Color space : YUV
  21. Chroma subsampling : 4:2:0
  22. Bit depth : 8 bits
  23. Scan type : Progressive
  24. Bits/(Pixel*Frame) : 0.145
  25. Stream size : 3.77 GiB (76%)
  26. Title : Rio.2.2014.1080p.BluRay.3D.Half-SBS.x264.DTS-RARBG
  27. Writing library : x264 core 142 r2431 ac76440
  28. Language : English
  29. Default : Yes
  30. Forced : No
  31. Audio
  32. ID : 2
  33. Format : DTS
  34. Format/Info : Digital Theater Systems
  35. Format profile : ES
  36. Mode : 16
  37. Format settings, Endianness : Big
  38. Codec ID : A_DTS
  39. Duration : 1h 41mn
  40. Bit rate mode : Constant
  41. Bit rate : 1 509 Kbps
  42. Channel(s) : 6 channels
  43. Channel positions : Front: L C R, Side: L R, LFE
  44. Sampling rate : 48.0 KHz
  45. Bit depth : 24 bits
  46. Compression mode : Lossy
  47. Stream size : 1.07 GiB (22%)
  48. Title : Rio.2.2014.1080p.BluRay.3D.Half-SBS.x264.DTS-RARBG
  49. Language : English
  50. Default : Yes
  51. Forced : No
  52. Text
  53. ID : 3
  54. Format : VobSub
  55. Muxing mode : zlib
  56. Codec ID : S_VOBSUB
  57. Codec ID/Info : The same subtitle format used on DVDs
  58. Language : English
  59. Default : No
  60. Forced : No
  61. [/mediainfo]
  62. [b]Notes:
  63. Greetz to everyone :)[/b]
Comments powered by Disqus