1. General
  2. Complete name : C:\Users\ddddrelease\Desktop\Out.Of.Death.2021.1080p.WEB-DL.DD5.1.H.264-EVO.mp4
  3. Format : MPEG-4
  4. Format profile : Base Media
  5. Codec ID : isom (isom/iso2/avc1/mp41)
  6. File size : 494 MiB
  7. Duration : 1 h 35 min
  8. Overall bit rate : 723 kb/s
  9. Movie name : ddddrelease rlsbb.ru
  10. Album : ddddrelease rlsbb.ru
  11. Album/Performer : ddddrelease rlsbb.ru
  12. Performer : ddddrelease rlsbb.ru
  13. Composer : ddddrelease rlsbb.ru
  14. Encoded date : UTC 2021-07-05 23:45:05
  15. Tagged date : UTC 2021-07-05 23:45:05
  16. Writing application : Lavf58.12.100
  17. Comment : ddddrelease rlsbb.ru
  18. Video
  19. ID : 1
  20. Format : AVC
  21. Format/Info : Advanced Video Codec
  22. Format profile : [email protected]
  23. Format settings : CABAC / 2 Ref Frames
  24. Format settings, CABAC : Yes
  25. Format settings, Reference frames : 2 frames
  26. Codec ID : avc1
  27. Codec ID/Info : Advanced Video Coding
  28. Duration : 1 h 35 min
  29. Bit rate : 463 kb/s
  30. Width : 720 pixels
  31. Height : 480 pixels
  32. Display aspect ratio : 3:2
  33. Frame rate mode : Variable
  34. Frame rate : 23.976 FPS
  35. Color space : YUV
  36. Chroma subsampling : 4:2:0
  37. Bit depth : 8 bits
  38. Scan type : Progressive
  39. Bits/(Pixel*Frame) : 0.056
  40. Stream size : 316 MiB (64%)
  41. Encoded date : UTC 2021-07-05 23:45:05
  42. Tagged date : UTC 2021-07-05 23:45:05
  43. Codec configuration box : avcC
  44. Audio
  45. ID : 2
  46. Format : AC-3
  47. Format/Info : Audio Coding 3
  48. Commercial name : Dolby Digital
  49. Codec ID : ac-3
  50. Duration : 1 h 35 min
  51. Bit rate mode : Constant
  52. Bit rate : 256 kb/s
  53. Channel(s) : 2 channels
  54. Channel layout : L R
  55. Sampling rate : 48.0 kHz
  56. Frame rate : 31.250 FPS (1536 SPF)
  57. Compression mode : Lossy
  58. Stream size : 175 MiB (35%)
  59. Language : English
  60. Service kind : Complete Main
  61. Default : Yes
  62. Alternate group : 1
  63. Encoded date : UTC 2021-07-05 23:45:05
  64. Tagged date : UTC 2021-07-05 23:45:05
Comments powered by Disqus