1. There is to much media info to place for each file. While the bit-rate varies from movie to movie, they are all close, so I'll post media info from 3 of the movies
  2. Sample 1
  3. Format : Matroska
  4. Format version : Version 4 / Version 2
  5. File size : 3.74 GiB
  6. Duration : 1h 52mn
  7. Overall bit rate : 4 781 Kbps
  8. Movie name : MARVEL'S THOR: THE DARK WORLD - BLU-RAY
  9. Encoded date : UTC 2017-07-30T10:20:59Z
  10. Writing application : HandBrake 1.0.7 2017040900
  11. Writing library : Lavf57.7.2
  12. Video
  13. ID : 1
  14. Format : AVC
  15. Format/Info : Advanced Video Codec
  16. Format profile : [email protected]
  17. Format settings, CABAC : Yes
  18. Format settings, ReFrames : 5 frames
  19. Codec ID : V_MPEG4/ISO/AVC
  20. Duration : 1h 52mn
  21. Width : 1 920 pixels
  22. Height : 800 pixels
  23. Display aspect ratio : 2.40:1
  24. Frame rate mode : Variable
  25. Frame rate : 23.976 fps
  26. Color space : YUV
  27. Chroma subsampling : 4:2:0
  28. Bit depth : 8 bits
  29. Scan type : Progressive
  30. Writing library : x264 core 148 r2708 86b7198
  31. Encoding settings : cabac=1 / ref=5 / deblock=1:-1:-1 / analyse=0x3:0x133 / me=umh / subme=10 / psy=1 / psy_rd=1.00:0.15 / mixed_ref=1 / me_range=24 / chroma_me=1 / trellis=2 / 8x8dct=1 / cqm=0 / deadzone=21,11 / fast_pskip=1 / chroma_qp_offset=-3 / threads=18 / lookahead_threads=3 / sliced_threads=0 / nr=0 / decimate=1 / interlaced=0 / bluray_compat=0 / constrained_intra=0 / bframes=8 / b_pyramid=2 / b_adapt=2 / b_bias=0 / direct=3 / weightb=1 / open_gop=0 / weightp=2 / keyint=240 / keyint_min=24 / scenecut=40 / intra_refresh=0 / rc_lookahead=60 / rc=crf / mbtree=1 / crf=19.0 / qcomp=0.60 / qpmin=0 / qpmax=69 / qpstep=4 / vbv_maxrate=62500 / vbv_bufsize=78125 / crf_max=0.0 / nal_hrd=none / filler=0 / ip_ratio=1.40 / aq=1:1.00
  32. Default : Yes
  33. Forced : No
  34. Color primaries : BT.709-5, BT.1361, IEC 61966-2-4, SMPTE RP177
  35. Transfer characteristics : BT.709-5, BT.1361
  36. Matrix coefficients : BT.709-5, BT.1361, IEC 61966-2-4 709, SMPTE RP177
  37. Audio #1
  38. ID : 2
  39. Format : AAC
  40. Format/Info : Advanced Audio Codec
  41. Format profile : LC
  42. Codec ID : A_AAC
  43. Duration : 1h 52mn
  44. Channel(s) : 2 channels
  45. Channel positions : Front: L R
  46. Sampling rate : 48.0 KHz
  47. Compression mode : Lossy
  48. Delay relative to video : -21ms
  49. Title : Stereo
  50. Language : English
  51. Default : Yes
  52. Forced : No
  53. Audio #2
  54. ID : 3
  55. Format : AC-3
  56. Format/Info : Audio Coding 3
  57. Mode extension : CM (complete main)
  58. Format settings, Endianness : Big
  59. Codec ID : A_AC3
  60. Duration : 1h 52mn
  61. Bit rate mode : Constant
  62. Bit rate : 448 Kbps
  63. Channel(s) : 6 channels
  64. Channel positions : Front: L C R, Side: L R, LFE
  65. Sampling rate : 48.0 KHz
  66. Bit depth : 16 bits
  67. Compression mode : Lossy
  68. Delay relative to video : -5ms
  69. Stream size : 359 MiB (9%)
  70. Title : Surround
  71. Language : English
  72. Default : No
  73. Forced : No
  74. Audio #3
  75. ID : 4
  76. Format : AAC
  77. Format/Info : Advanced Audio Codec
  78. Format profile : LC
  79. Codec ID : A_AAC
  80. Duration : 1h 52mn
  81. Channel(s) : 2 channels
  82. Channel positions : Front: L R
  83. Sampling rate : 48.0 KHz
  84. Compression mode : Lossy
  85. Delay relative to video : -21ms
  86. Title : Stereo
  87. Language : English
  88. Default : No
  89. Forced : No
  90. Text #1
  91. ID : 5
  92. Format : PGS
  93. Codec ID : S_HDMV/PGS
  94. Codec ID/Info : The same subtitle format used on BDs/HD-DVDs
  95. Language : English
  96. Default : No
  97. Forced : No
  98. Text #2
  99. ID : 6
  100. Format : PGS
  101. Codec ID : S_HDMV/PGS
  102. Codec ID/Info : The same subtitle format used on BDs/HD-DVDs
  103. Language : French
  104. Default : No
  105. Forced : No
  106. Text #3
  107. ID : 7
  108. Format : PGS
  109. Codec ID : S_HDMV/PGS
  110. Codec ID/Info : The same subtitle format used on BDs/HD-DVDs
  111. Language : Spanish
  112. Default : No
  113. Forced : No
  114. Text #4
  115. ID : 8
  116. Format : PGS
  117. Codec ID : S_HDMV/PGS
  118. Codec ID/Info : The same subtitle format used on BDs/HD-DVDs
  119. Language : Portuguese
  120. Default : No
  121. Forced : No
  122. Text #5
  123. ID : 9
  124. Format : PGS
  125. Codec ID : S_HDMV/PGS
  126. Codec ID/Info : The same subtitle format used on BDs/HD-DVDs
  127. Language : French
  128. Default : No
  129. Forced : No
  130. Text #6
  131. ID : 10
  132. Format : PGS
  133. Codec ID : S_HDMV/PGS
  134. Codec ID/Info : The same subtitle format used on BDs/HD-DVDs
  135. Language : English
  136. Default : No
  137. Forced : No
  138. Text #7
  139. ID : 11
  140. Format : PGS
  141. Codec ID : S_HDMV/PGS
  142. Codec ID/Info : The same subtitle format used on BDs/HD-DVDs
  143. Language : Spanish
  144. Default : No
  145. Forced : No
  146. Text #8
  147. ID : 12
  148. Format : PGS
  149. Codec ID : S_HDMV/PGS
  150. Codec ID/Info : The same subtitle format used on BDs/HD-DVDs
  151. Language : Portuguese
  152. Default : No
  153. Forced : No
  154. Text #9
  155. ID : 13
  156. Format : PGS
  157. Codec ID : S_HDMV/PGS
  158. Codec ID/Info : The same subtitle format used on BDs/HD-DVDs
  159. Language : English
  160. Default : No
  161. Forced : No
  162. Text #10
  163. ID : 14
  164. Format : PGS
  165. Codec ID : S_HDMV/PGS
  166. Codec ID/Info : The same subtitle format used on BDs/HD-DVDs
  167. Language : French
  168. Default : No
  169. Forced : No
  170. Text #11
  171. ID : 15
  172. Format : PGS
  173. Codec ID : S_HDMV/PGS
  174. Codec ID/Info : The same subtitle format used on BDs/HD-DVDs
  175. Language : Spanish
  176. Default : No
  177. Forced : No
  178. Text #12
  179. ID : 16
  180. Format : PGS
  181. Codec ID : S_HDMV/PGS
  182. Codec ID/Info : The same subtitle format used on BDs/HD-DVDs
  183. Language : Portuguese
  184. Default : No
  185. Forced : No
  186. Sample 2
  187. Format : Matroska
  188. Format version : Version 4 / Version 2
  189. File size : 3.84 GiB
  190. Duration : 2h 10mn
  191. Overall bit rate : 4 211 Kbps
  192. Movie name : Iron.Man.3.2013.BluRay.1080p.DTS-HD.MA.7.1.AVC.REMUX-FraMeSToR
  193. Encoded date : UTC 2017-07-26T07:16:56Z
  194. Writing application : HandBrake 1.0.7 2017040900
  195. Writing library : Lavf57.7.2
  196. Video
  197. ID : 1
  198. Format : AVC
  199. Format/Info : Advanced Video Codec
  200. Format profile : [email protected]
  201. Format settings, CABAC : Yes
  202. Format settings, ReFrames : 5 frames
  203. Codec ID : V_MPEG4/ISO/AVC
  204. Duration : 2h 10mn
  205. Width : 1 920 pixels
  206. Height : 800 pixels
  207. Display aspect ratio : 2.40:1
  208. Frame rate mode : Variable
  209. Frame rate : 23.976 fps
  210. Color space : YUV
  211. Chroma subsampling : 4:2:0
  212. Bit depth : 8 bits
  213. Scan type : Progressive
  214. Writing library : x264 core 148 r2708 86b7198
  215. Encoding settings : cabac=1 / ref=5 / deblock=1:-1:-1 / analyse=0x3:0x133 / me=umh / subme=10 / psy=1 / psy_rd=1.00:0.15 / mixed_ref=1 / me_range=24 / chroma_me=1 / trellis=2 / 8x8dct=1 / cqm=0 / deadzone=21,11 / fast_pskip=1 / chroma_qp_offset=-3 / threads=18 / lookahead_threads=3 / sliced_threads=0 / nr=0 / decimate=1 / interlaced=0 / bluray_compat=0 / constrained_intra=0 / bframes=8 / b_pyramid=2 / b_adapt=2 / b_bias=0 / direct=3 / weightb=1 / open_gop=0 / weightp=2 / keyint=240 / keyint_min=24 / scenecut=40 / intra_refresh=0 / rc_lookahead=60 / rc=crf / mbtree=1 / crf=20.0 / qcomp=0.60 / qpmin=0 / qpmax=69 / qpstep=4 / vbv_maxrate=62500 / vbv_bufsize=78125 / crf_max=0.0 / nal_hrd=none / filler=0 / ip_ratio=1.40 / aq=1:1.00
  216. Default : Yes
  217. Forced : No
  218. Color primaries : BT.709-5, BT.1361, IEC 61966-2-4, SMPTE RP177
  219. Transfer characteristics : BT.709-5, BT.1361
  220. Matrix coefficients : BT.709-5, BT.1361, IEC 61966-2-4 709, SMPTE RP177
  221. Audio #1
  222. ID : 2
  223. Format : AAC
  224. Format/Info : Advanced Audio Codec
  225. Format profile : LC
  226. Codec ID : A_AAC
  227. Duration : 2h 10mn
  228. Channel(s) : 2 channels
  229. Channel positions : Front: L R
  230. Sampling rate : 48.0 KHz
  231. Compression mode : Lossy
  232. Delay relative to video : -21ms
  233. Title : Stereo
  234. Language : English
  235. Default : Yes
  236. Forced : No
  237. Audio #2
  238. ID : 3
  239. Format : AC-3
  240. Format/Info : Audio Coding 3
  241. Mode extension : CM (complete main)
  242. Format settings, Endianness : Big
  243. Codec ID : A_AC3
  244. Duration : 2h 10mn
  245. Bit rate mode : Constant
  246. Bit rate : 448 Kbps
  247. Channel(s) : 6 channels
  248. Channel positions : Front: L C R, Side: L R, LFE
  249. Sampling rate : 48.0 KHz
  250. Bit depth : 16 bits
  251. Compression mode : Lossy
  252. Delay relative to video : -5ms
  253. Stream size : 418 MiB (11%)
  254. Title : Surround
  255. Language : English
  256. Default : No
  257. Forced : No
  258. Audio #3
  259. ID : 4
  260. Format : AAC
  261. Format/Info : Advanced Audio Codec
  262. Format profile : LC
  263. Codec ID : A_AAC
  264. Duration : 2h 10mn
  265. Channel(s) : 2 channels
  266. Channel positions : Front: L R
  267. Sampling rate : 48.0 KHz
  268. Compression mode : Lossy
  269. Delay relative to video : -21ms
  270. Title : Stereo
  271. Language : English
  272. Default : No
  273. Forced : No
  274. Text #1
  275. ID : 5
  276. Format : PGS
  277. Codec ID : S_HDMV/PGS
  278. Codec ID/Info : The same subtitle format used on BDs/HD-DVDs
  279. Language : English
  280. Default : No
  281. Forced : No
  282. Text #2
  283. ID : 6
  284. Format : PGS
  285. Codec ID : S_HDMV/PGS
  286. Codec ID/Info : The same subtitle format used on BDs/HD-DVDs
  287. Language : English
  288. Default : No
  289. Forced : No
  290. Text #3
  291. ID : 7
  292. Format : PGS
  293. Codec ID : S_HDMV/PGS
  294. Codec ID/Info : The same subtitle format used on BDs/HD-DVDs
  295. Language : French
  296. Default : No
  297. Forced : No
  298. Text #4
  299. ID : 8
  300. Format : PGS
  301. Codec ID : S_HDMV/PGS
  302. Codec ID/Info : The same subtitle format used on BDs/HD-DVDs
  303. Language : Dutch
  304. Default : No
  305. Forced : No
  306. Text #5
  307. ID : 9
  308. Format : PGS
  309. Codec ID : S_HDMV/PGS
  310. Codec ID/Info : The same subtitle format used on BDs/HD-DVDs
  311. Language : Greek
  312. Default : No
  313. Forced : No
  314. Text #6
  315. ID : 10
  316. Format : PGS
  317. Codec ID : S_HDMV/PGS
  318. Codec ID/Info : The same subtitle format used on BDs/HD-DVDs
  319. Language : Arabic
  320. Default : No
  321. Forced : No
  322. Text #7
  323. ID : 11
  324. Format : PGS
  325. Codec ID : S_HDMV/PGS
  326. Codec ID/Info : The same subtitle format used on BDs/HD-DVDs
  327. Language : Russian
  328. Default : No
  329. Forced : No
  330. Text #8
  331. ID : 12
  332. Format : PGS
  333. Codec ID : S_HDMV/PGS
  334. Codec ID/Info : The same subtitle format used on BDs/HD-DVDs
  335. Language : Ukrainian
  336. Default : No
  337. Forced : No
  338. Text #9
  339. ID : 13
  340. Format : PGS
  341. Codec ID : S_HDMV/PGS
  342. Codec ID/Info : The same subtitle format used on BDs/HD-DVDs
  343. Language : Bulgarian
  344. Default : No
  345. Forced : No
  346. Text #10
  347. ID : 14
  348. Format : PGS
  349. Codec ID : S_HDMV/PGS
  350. Codec ID/Info : The same subtitle format used on BDs/HD-DVDs
  351. Language : Latvian
  352. Default : No
  353. Forced : No
  354. Text #11
  355. ID : 15
  356. Format : PGS
  357. Codec ID : S_HDMV/PGS
  358. Codec ID/Info : The same subtitle format used on BDs/HD-DVDs
  359. Language : Lithuanian
  360. Default : No
  361. Forced : No
  362. Text #12
  363. ID : 16
  364. Format : PGS
  365. Codec ID : S_HDMV/PGS
  366. Codec ID/Info : The same subtitle format used on BDs/HD-DVDs
  367. Language : Estonian
  368. Default : No
  369. Forced : No
  370. Text #13
  371. ID : 17
  372. Format : PGS
  373. Codec ID : S_HDMV/PGS
  374. Codec ID/Info : The same subtitle format used on BDs/HD-DVDs
  375. Language : French
  376. Default : No
  377. Forced : No
  378. Text #14
  379. ID : 18
  380. Format : PGS
  381. Codec ID : S_HDMV/PGS
  382. Codec ID/Info : The same subtitle format used on BDs/HD-DVDs
  383. Language : Dutch
  384. Default : No
  385. Forced : No
  386. Text #15
  387. ID : 19
  388. Format : PGS
  389. Codec ID : S_HDMV/PGS
  390. Codec ID/Info : The same subtitle format used on BDs/HD-DVDs
  391. Language : Russian
  392. Default : No
  393. Forced : No
  394. Sample 3
  395. Format : Matroska
  396. Format version : Version 4 / Version 2
  397. File size : 3.84 GiB
  398. Duration : 2h 15mn
  399. Overall bit rate : 4 051 Kbps
  400. Movie name : Guardians.of.the.Galaxy.Vol.2.2017.REMUX.1080p.BluRay.AVC.DTS-HD.MA.7.1-iFT
  401. Encoded date : UTC 2017-08-17T18:04:34Z
  402. Writing application : HandBrake 1.0.7 2017040900
  403. Writing library : Lavf57.7.2
  404. Video
  405. ID : 1
  406. Format : AVC
  407. Format/Info : Advanced Video Codec
  408. Format profile : [email protected]
  409. Format settings, CABAC : Yes
  410. Format settings, ReFrames : 5 frames
  411. Codec ID : V_MPEG4/ISO/AVC
  412. Duration : 2h 15mn
  413. Width : 1 920 pixels
  414. Height : 804 pixels
  415. Display aspect ratio : 2.40:1
  416. Frame rate mode : Variable
  417. Frame rate : 23.976 fps
  418. Color space : YUV
  419. Chroma subsampling : 4:2:0
  420. Bit depth : 8 bits
  421. Scan type : Progressive
  422. Writing library : x264 core 148 r2708 86b7198
  423. Encoding settings : cabac=1 / ref=5 / deblock=1:-1:-1 / analyse=0x3:0x133 / me=umh / subme=10 / psy=1 / psy_rd=1.00:0.15 / mixed_ref=1 / me_range=24 / chroma_me=1 / trellis=2 / 8x8dct=1 / cqm=0 / deadzone=21,11 / fast_pskip=1 / chroma_qp_offset=-3 / threads=18 / lookahead_threads=3 / sliced_threads=0 / nr=0 / decimate=1 / interlaced=0 / bluray_compat=0 / constrained_intra=0 / bframes=8 / b_pyramid=2 / b_adapt=2 / b_bias=0 / direct=3 / weightb=1 / open_gop=0 / weightp=2 / keyint=240 / keyint_min=24 / scenecut=40 / intra_refresh=0 / rc_lookahead=60 / rc=crf / mbtree=1 / crf=21.0 / qcomp=0.60 / qpmin=0 / qpmax=69 / qpstep=4 / vbv_maxrate=62500 / vbv_bufsize=78125 / crf_max=0.0 / nal_hrd=none / filler=0 / ip_ratio=1.40 / aq=1:1.00
  424. Default : Yes
  425. Forced : No
  426. Color primaries : BT.709-5, BT.1361, IEC 61966-2-4, SMPTE RP177
  427. Transfer characteristics : BT.709-5, BT.1361
  428. Matrix coefficients : BT.709-5, BT.1361, IEC 61966-2-4 709, SMPTE RP177
  429. Audio #1
  430. ID : 2
  431. Format : AAC
  432. Format/Info : Advanced Audio Codec
  433. Format profile : LC
  434. Codec ID : A_AAC
  435. Duration : 2h 15mn
  436. Channel(s) : 2 channels
  437. Channel positions : Front: L R
  438. Sampling rate : 48.0 KHz
  439. Compression mode : Lossy
  440. Delay relative to video : -21ms
  441. Title : Stereo
  442. Language : English
  443. Default : Yes
  444. Forced : No
  445. Audio #2
  446. ID : 3
  447. Format : AC-3
  448. Format/Info : Audio Coding 3
  449. Mode extension : CM (complete main)
  450. Format settings, Endianness : Big
  451. Codec ID : A_AC3
  452. Duration : 2h 15mn
  453. Bit rate mode : Constant
  454. Bit rate : 448 Kbps
  455. Channel(s) : 6 channels
  456. Channel positions : Front: L C R, Side: L R, LFE
  457. Sampling rate : 48.0 KHz
  458. Bit depth : 16 bits
  459. Compression mode : Lossy
  460. Delay relative to video : -5ms
  461. Stream size : 435 MiB (11%)
  462. Title : Surround
  463. Language : English
  464. Default : No
  465. Forced : No
  466. Text #1
  467. ID : 4
  468. Format : PGS
  469. Codec ID : S_HDMV/PGS
  470. Codec ID/Info : The same subtitle format used on BDs/HD-DVDs
  471. Language : English
  472. Default : No
  473. Forced : No
  474. Text #2
  475. ID : 5
  476. Format : PGS
  477. Codec ID : S_HDMV/PGS
  478. Codec ID/Info : The same subtitle format used on BDs/HD-DVDs
  479. Language : French
  480. Default : No
  481. Forced : No
  482. Text #3
  483. ID : 6
  484. Format : PGS
  485. Codec ID : S_HDMV/PGS
  486. Codec ID/Info : The same subtitle format used on BDs/HD-DVDs
  487. Language : Spanish
  488. Default : No
  489. Forced : No
Comments powered by Disqus