1. General
  2. Complete name : C:\Users\ddddrelease\Desktop\The.Birthday.Cake.2021.BRRip.720x480ph264.proper.mp4\The.Birthday.Cake.2021.BRRip.XviD.AC3-EVO.mp4
  3. Format : MPEG-4
  4. Format profile : Base Media
  5. Codec ID : isom (isom/iso2/avc1/mp41)
  6. File size : 665 MiB
  7. Duration : 1 h 33 min
  8. Overall bit rate mode : Variable
  9. Overall bit rate : 1 000 kb/s
  10. Movie name : encoded and uploaded by ddddrelease rlsbb.ru
  11. Performer : encoded and uploaded by ddddrelease rlsbb.ru
  12. Composer : encoded and uploaded by ddddrelease rlsbb.ru
  13. Genre :
  14. ContentType : Short Film
  15. Description : encoded and uploaded by ddddrelease rlsbb.ru
  16. Encoded date : UTC 2021-07-23 00:56:09
  17. Tagged date : UTC 2021-07-23 08:11:49
  18. Writing application : Lavf58.12.100 / encoded and uploaded by ddddrelease rlsbb.ru
  19. Comment : encoded and uploaded by ddddrelease rlsbb.ru
  20. LongDescription : encoded and uploaded by ddddrelease rlsbb.ru
  21. Video
  22. ID : 1
  23. Format : AVC
  24. Format/Info : Advanced Video Codec
  25. Format profile : [email protected]
  26. Format settings : CABAC / 2 Ref Frames
  27. Format settings, CABAC : Yes
  28. Format settings, Reference frames : 2 frames
  29. Codec ID : avc1
  30. Codec ID/Info : Advanced Video Coding
  31. Duration : 1 h 33 min
  32. Bit rate : 800 kb/s
  33. Width : 720 pixels
  34. Height : 480 pixels
  35. Display aspect ratio : 3:2
  36. Frame rate mode : Constant
  37. Frame rate : 23.976 (24000/1001) FPS
  38. Color space : YUV
  39. Chroma subsampling : 4:2:0
  40. Bit depth : 8 bits
  41. Scan type : Progressive
  42. Bits/(Pixel*Frame) : 0.097
  43. Stream size : 532 MiB (80%)
  44. Encoded date : UTC 2021-07-23 00:56:09
  45. Tagged date : UTC 2021-07-23 00:56:09
  46. Codec configuration box : avcC
  47. Audio
  48. ID : 2
  49. Format : AAC LC
  50. Format/Info : Advanced Audio Codec Low Complexity
  51. Codec ID : mp4a-40-2
  52. Duration : 1 h 33 min
  53. Bit rate mode : Variable
  54. Bit rate : 192 kb/s
  55. Maximum bit rate : 208 kb/s
  56. Channel(s) : 2 channels
  57. Channel layout : L R
  58. Sampling rate : 44.1 kHz
  59. Frame rate : 43.066 FPS (1024 SPF)
  60. Compression mode : Lossy
  61. Stream size : 130 MiB (20%)
  62. Language : English
  63. Default : Yes
  64. Alternate group : 1
  65. Encoded date : UTC 2021-07-23 00:56:09
  66. Tagged date : UTC 2021-07-23 00:56:09
Comments powered by Disqus