1. Release Name..: The Last Ship S03 REPACK 1080p BluRay REMUX AVC TrueHD 5.1-EPSiLON
  2. Video.........: 1080p AVC @ ~12900 kbps
  3. Audio #1......: TrueHD 5.1 16-bit @ ~2300 kbps
  4. Chapters......: Yes (Numbered)
  5. Source........: The Last Ship S03 COMPLETE BluRay-o0o (Thanks!)
  6. Notes.........: Repack due to video glitches in some scenes on previous release. Enjoy.
  7. General
  8. Unique ID : 249210528744345429855052395579128404461 (0xBB7C33B4BBE3903FB1308142C3DBD9ED)
  9. Complete name : The.Last.Ship.S03E01.The.Scott.Effect.REPACK.1080p.BluRay.REMUX.AVC.TrueHD.5.1-EPSiLON.mkv
  10. Format : Matroska
  11. Format version : Version 4 / Version 2
  12. File size : 4.69 GiB
  13. Duration : 41 min 58 s
  14. Overall bit rate mode : Variable
  15. Overall bit rate : 16.0 Mb/s
  16. Encoded date : UTC 2017-09-26 08:52:22
  17. Writing application : mkvmerge v15.0.0 ('Duel with the Devil') 64-bit
  18. Writing library : libebml v1.3.5 + libmatroska v1.4.5
  19. FileExtension_Invalid : mkv mk3d mka mks
  20. Video
  21. ID : 1
  22. Format : AVC
  23. Format/Info : Advanced Video Codec
  24. Format profile : [email protected]
  25. Format settings, CABAC : Yes
  26. Format settings, ReFrames : 2 frames
  27. Codec ID : V_MPEG4/ISO/AVC
  28. Duration : 41 min 57 s
  29. Bit rate mode : Variable
  30. Bit rate : 12.9 Mb/s
  31. Maximum bit rate : 24.0 Mb/s
  32. Width : 1 920 pixels
  33. Height : 1 080 pixels
  34. Display aspect ratio : 16:9
  35. Frame rate mode : Constant
  36. Frame rate : 23.976 (24000/1001) FPS
  37. Color space : YUV
  38. Chroma subsampling : 4:2:0
  39. Bit depth : 8 bits
  40. Scan type : Progressive
  41. Bits/(Pixel*Frame) : 0.260
  42. Stream size : 3.79 GiB (81%)
  43. Title : MPEG-4 AVC Video / ~12900 kbps / 1080p / 23.976 fps / 16:9 / High Profile 4.1
  44. Language : English
  45. Default : Yes
  46. Forced : No
  47. Audio #1
  48. ID : 2
  49. Format : TrueHD
  50. Codec ID : A_TRUEHD
  51. Duration : 41 min 58 s
  52. Bit rate mode : Variable
  53. Bit rate : 1 953 kb/s
  54. Maximum bit rate : 3 111 kb/s
  55. Channel(s) : 6 channels
  56. Channel positions : Front: L C R, Side: L R, LFE
  57. Sampling rate : 48.0 kHz
  58. Frame rate : 1 200.000 FPS (40 spf)
  59. Compression mode : Lossless
  60. Stream size : 587 MiB (12%)
  61. Title : Dolby TrueHD Audio / 5.1 / 48 kHz / ~2300 kbps / 16-bit
  62. Language : English
  63. Default : Yes
  64. Forced : No
  65. Audio #2
  66. ID : 3
  67. Format : AC-3
  68. Format/Info : Audio Coding 3
  69. Format settings, Endianness : Big
  70. Codec ID : A_AC3
  71. Duration : 41 min 58 s
  72. Bit rate mode : Constant
  73. Bit rate : 640 kb/s
  74. Channel(s) : 6 channels
  75. Channel positions : Front: L C R, Side: L R, LFE
  76. Sampling rate : 48.0 kHz
  77. Frame rate : 31.250 FPS (1536 spf)
  78. Bit depth : 16 bits
  79. Compression mode : Lossy
  80. Stream size : 192 MiB (4%)
  81. Title : Compatibility Track / Dolby Digital Audio / 5.1 / 48 kHz / 640 kbps
  82. Language : English
  83. Service kind : Complete Main
  84. Default : No
  85. Forced : No
  86. Text #1
  87. ID : 4
  88. Format : PGS
  89. Codec ID : S_HDMV/PGS
  90. Codec ID/Info : Picture based subtitle format used on BDs/HD-DVDs
  91. Duration : 41 min 52 s
  92. Bit rate : 46.6 kb/s
  93. Count of elements : 1330
  94. Stream size : 13.9 MiB (0%)
  95. Language : English
  96. Default : No
  97. Forced : No
  98. Text #2
  99. ID : 5
  100. Format : PGS
  101. Codec ID : S_HDMV/PGS
  102. Codec ID/Info : Picture based subtitle format used on BDs/HD-DVDs
  103. Duration : 41 min 52 s
  104. Bit rate : 40.0 kb/s
  105. Count of elements : 1214
  106. Stream size : 12.0 MiB (0%)
  107. Language : Danish
  108. Default : No
  109. Forced : No
  110. Text #3
  111. ID : 6
  112. Format : PGS
  113. Codec ID : S_HDMV/PGS
  114. Codec ID/Info : Picture based subtitle format used on BDs/HD-DVDs
  115. Duration : 41 min 52 s
  116. Bit rate : 39.3 kb/s
  117. Count of elements : 1186
  118. Stream size : 11.8 MiB (0%)
  119. Language : Dutch
  120. Default : No
  121. Forced : No
  122. Text #4
  123. ID : 7
  124. Format : PGS
  125. Codec ID : S_HDMV/PGS
  126. Codec ID/Info : Picture based subtitle format used on BDs/HD-DVDs
  127. Duration : 41 min 52 s
  128. Bit rate : 38.0 kb/s
  129. Count of elements : 1214
  130. Stream size : 11.4 MiB (0%)
  131. Language : Finnish
  132. Default : No
  133. Forced : No
  134. Text #5
  135. ID : 8
  136. Format : PGS
  137. Codec ID : S_HDMV/PGS
  138. Codec ID/Info : Picture based subtitle format used on BDs/HD-DVDs
  139. Duration : 41 min 52 s
  140. Bit rate : 41.5 kb/s
  141. Count of elements : 1212
  142. Stream size : 12.4 MiB (0%)
  143. Language : French
  144. Default : No
  145. Forced : No
  146. Text #6
  147. ID : 9
  148. Format : PGS
  149. Codec ID : S_HDMV/PGS
  150. Codec ID/Info : Picture based subtitle format used on BDs/HD-DVDs
  151. Duration : 41 min 11 s
  152. Bit rate : 27.4 kb/s
  153. Count of elements : 1203
  154. Stream size : 8.07 MiB (0%)
  155. Language : Japanese
  156. Default : No
  157. Forced : No
  158. Text #7
  159. ID : 10
  160. Format : PGS
  161. Codec ID : S_HDMV/PGS
  162. Codec ID/Info : Picture based subtitle format used on BDs/HD-DVDs
  163. Duration : 41 min 52 s
  164. Bit rate : 38.5 kb/s
  165. Count of elements : 1214
  166. Stream size : 11.5 MiB (0%)
  167. Language : Norwegian
  168. Default : No
  169. Forced : No
  170. Text #8
  171. ID : 11
  172. Format : PGS
  173. Codec ID : S_HDMV/PGS
  174. Codec ID/Info : Picture based subtitle format used on BDs/HD-DVDs
  175. Duration : 41 min 52 s
  176. Bit rate : 43.3 kb/s
  177. Count of elements : 1186
  178. Stream size : 13.0 MiB (0%)
  179. Language : Spanish
  180. Default : No
  181. Forced : No
  182. Text #9
  183. ID : 12
  184. Format : PGS
  185. Codec ID : S_HDMV/PGS
  186. Codec ID/Info : Picture based subtitle format used on BDs/HD-DVDs
  187. Duration : 41 min 52 s
  188. Bit rate : 41.3 kb/s
  189. Count of elements : 1212
  190. Stream size : 12.4 MiB (0%)
  191. Title : Latin American
  192. Language : Spanish
  193. Default : No
  194. Forced : No
  195. Text #10
  196. ID : 13
  197. Format : PGS
  198. Codec ID : S_HDMV/PGS
  199. Codec ID/Info : Picture based subtitle format used on BDs/HD-DVDs
  200. Duration : 41 min 52 s
  201. Bit rate : 41.1 kb/s
  202. Count of elements : 1214
  203. Stream size : 12.3 MiB (0%)
  204. Language : Swedish
  205. Default : No
  206. Forced : No
  207. Menu
  208. 00:00:00.000 : en:Chapter 1
  209. 00:02:16.178 : en:Chapter 2
  210. 00:09:22.520 : en:Chapter 3
  211. 00:14:31.537 : en:Chapter 4
  212. 00:23:42.421 : en:Chapter 5
  213. 00:28:27.497 : en:Chapter 6
  214. 00:33:46.691 : en:Chapter 7
  215. 00:41:20.853 : en:Chapter 8
Comments powered by Disqus