1. General
  2. Unique ID : 323181392229913369691187419933750479186 (0xF32278DA00500A2D5E116A7D3F924952)
  3. Complete name : unfired-kampfdertitanen-x265.mkv
  4. Format : Matroska
  5. Format version : Version 2
  6. File size : 4.59 GiB
  7. Duration : 1 h 46 min
  8. Overall bit rate : 6 194 kb/s
  9. Encoded date : UTC 2018-06-08 07:03:09
  10. Writing application : mkvmerge v22.0.0 ('At The End Of The World') 64-bit
  11. Writing library : libebml v1.3.5 + libmatroska v1.4.8
  12. Video
  13. ID : 1
  14. Format : HEVC
  15. Format/Info : High Efficiency Video Coding
  16. Format profile : [email protected]@Main
  17. Codec ID : V_MPEGH/ISO/HEVC
  18. Duration : 1 h 46 min
  19. Bit rate : 4 230 kb/s
  20. Width : 1 920 pixels
  21. Height : 800 pixels
  22. Display aspect ratio : 2.40:1
  23. Frame rate mode : Constant
  24. Frame rate : 23.976 (24000/1001) FPS
  25. Color space : YUV
  26. Chroma subsampling : 4:2:0
  27. Bit depth : 8 bits
  28. Bits/(Pixel*Frame) : 0.115
  29. Stream size : 3.14 GiB (68%)
  30. Writing library : x265 2.7+1-2aa737a99f51:[Windows][GCC 7.3.0][64 bit] 8bit+10bit+12bit
  31. Encoding settings : cpuid=1173503 / frame-threads=4 / numa-pools=16 / wpp / no-pmode / no-pme / no-psnr / no-ssim / log-level=2 / input-csp=1 / input-res=1920x800 / interlace=0 / total-frames=152688 / level-idc=0 / high-tier=1 / uhd-bd=0 / ref=4 / no-allow-non-conformance / no-repeat-headers / annexb / no-aud / no-hrd / info / hash=0 / no-temporal-layers / open-gop / min-keyint=23 / keyint=250 / gop-lookahead=0 / bframes=4 / b-adapt=2 / b-pyramid / bframe-bias=0 / rc-lookahead=25 / lookahead-slices=4 / scenecut=40 / radl=0 / no-intra-refresh / ctu=64 / min-cu-size=8 / rect / no-amp / max-tu-size=32 / tu-inter-depth=1 / tu-intra-depth=1 / limit-tu=0 / rdoq-level=2 / dynamic-rd=0.00 / no-ssim-rd / signhide / no-tskip / nr-intra=0 / nr-inter=0 / no-constrained-intra / strong-intra-smoothing / max-merge=3 / limit-refs=3 / limit-modes / me=3 / subme=3 / merange=57 / temporal-mvp / weightp / no-weightb / no-analyze-src-pics / deblock=0:0 / sao / no-sao-non-deblock / rd=4 / no-early-skip / rskip / no-fast-intra / no-tskip-fast / no-cu-lossless / no-b-intra / no-splitrd-skip / rdpenalty=0 / psy-rd=2.00 / psy-rdoq=1.00 / no-rd-refine / no-lossless / cbqpoffs=0 / crqpoffs=0 / rc=crf / crf=19.9 / qcomp=0.60 / qpstep=4 / stats-write=0 / stats-read=0 / ipratio=1.40 / pbratio=1.30 / aq-mode=1 / aq-strength=1.00 / cutree / zone-count=0 / no-strict-cbr / qg-size=32 / no-rc-grain / qpmax=69 / qpmin=0 / no-const-vbv / sar=1 / overscan=0 / videoformat=5 / range=0 / colorprim=2 / transfer=2 / colormatrix=2 / chromaloc=0 / display-window=0 / max-cll=0,0 / min-luma=0 / max-luma=255 / log2-max-poc-lsb=8 / vui-timing-info / vui-hrd-info / slices=1 / no-opt-qp-pps / no-opt-ref-list-length-pps / no-multi-pass-opt-rps / scenecut-bias=0.05 / no-opt-cu-delta-qp / no-aq-motion / no-hdr / no-hdr-opt / no-dhdr10-opt / analysis-reuse-level=5 / scale-factor=0 / refine-intra=0 / refine-inter=0 / refine-mv=0 / no-limit-sao / ctu-info=0 / no-lowpass-dct / refine-mv-type=0 / copy-pic=1
  32. Default : Yes
  33. Forced : No
  34. Audio #1
  35. ID : 2
  36. Format : AC-3
  37. Format/Info : Audio Coding 3
  38. Codec ID : A_AC3
  39. Duration : 1 h 46 min
  40. Bit rate mode : Constant
  41. Bit rate : 448 kb/s
  42. Channel(s) : 6 channels
  43. Channel positions : Front: L C R, Side: L R, LFE
  44. Sampling rate : 48.0 kHz
  45. Frame rate : 31.250 FPS (1536 SPF)
  46. Bit depth : 16 bits
  47. Compression mode : Lossy
  48. Stream size : 340 MiB (7%)
  49. Language : German
  50. Service kind : Complete Main
  51. Default : Yes
  52. Forced : No
  53. Audio #2
  54. ID : 3
  55. Format : DTS
  56. Format/Info : Digital Theater Systems
  57. Codec ID : A_DTS
  58. Duration : 1 h 46 min
  59. Bit rate mode : Constant
  60. Bit rate : 1 509 kb/s
  61. Channel(s) : 6 channels
  62. Channel positions : Front: L C R, Side: L R, LFE
  63. Sampling rate : 48.0 kHz
  64. Frame rate : 93.750 FPS (512 SPF)
  65. Bit depth : 24 bits
  66. Compression mode : Lossy
  67. Stream size : 1.12 GiB (24%)
  68. Language : English
  69. Default : No
  70. Forced : No
  71. Text #1
  72. ID : 4
  73. Format : VobSub
  74. Muxing mode : zlib
  75. Codec ID : S_VOBSUB
  76. Codec ID/Info : Picture based subtitle format used on DVDs
  77. Duration : 1 h 41 min
  78. Bit rate : 9 b/s
  79. Count of elements : 2
  80. Stream size : 7.19 KiB (0%)
  81. Title : forced
  82. Language : German
  83. Default : Yes
  84. Forced : Yes
  85. Text #2
  86. ID : 5
  87. Format : VobSub
  88. Muxing mode : zlib
  89. Codec ID : S_VOBSUB
  90. Codec ID/Info : Picture based subtitle format used on DVDs
  91. Duration : 1 h 45 min
  92. Bit rate : 6 786 b/s
  93. Count of elements : 900
  94. Stream size : 5.12 MiB (0%)
  95. Title : complete
  96. Language : German
  97. Default : No
  98. Forced : No
  99. Menu
  100. 00:00:00.000 : en:Chapter 01
  101. 00:05:39.839 : en:Chapter 02
  102. 00:10:07.607 : en:Chapter 03
  103. 00:14:25.239 : en:Chapter 04
  104. 00:20:58.632 : en:Chapter 05
  105. 00:26:07.107 : en:Chapter 06
  106. 00:31:59.876 : en:Chapter 07
  107. 00:38:19.547 : en:Chapter 08
  108. 00:47:03.779 : en:Chapter 09
  109. 00:52:45.620 : en:Chapter 10
  110. 00:59:20.306 : en:Chapter 11
  111. 01:07:02.852 : en:Chapter 12
  112. 01:13:17.267 : en:Chapter 13
  113. 01:19:37.314 : en:Chapter 14
  114. 01:26:01.114 : en:Chapter 15
  115. 01:31:52.089 : en:Chapter 16
  116. 01:35:23.175 : en:Chapter 17
  117. 01:46:07.361 : en:Chapter 18
Comments powered by Disqus