1. General
  2. Complete name : C:\Users\ddddrelease\Downloads\Brothers.by.Blood.2020.1080p.BluRay.H264.AAC-RARBG.mp4 st=M8973EGJzw051nDUYXxoXg&e=1627112129 (convert-video-online.com)(1).mp4
  3. Format : MPEG-4
  4. Format profile : Base Media
  5. Codec ID : isom (isom/iso2/avc1/mp41)
  6. File size : 937 MiB
  7. Duration : 1 h 30 min
  8. Overall bit rate : 1 449 kb/s
  9. Movie name : Brothers.by.Blood.2020.1080p.BluRay.H264.AAC-RARBG
  10. Writing application : Lavf58.45.100
  11. Comment : Brothers.by.Blood.2020.1080p.BluRay.H264.AAC-RARBG
  12. Video
  13. ID : 1
  14. Format : AVC
  15. Format/Info : Advanced Video Codec
  16. Format profile : [email protected]
  17. Format settings : CABAC / 4 Ref Frames
  18. Format settings, CABAC : Yes
  19. Format settings, Reference frames : 4 frames
  20. Codec ID : avc1
  21. Codec ID/Info : Advanced Video Coding
  22. Duration : 1 h 30 min
  23. Bit rate : 1 314 kb/s
  24. Nominal bit rate : 1 380 kb/s
  25. Width : 1 280 pixels
  26. Height : 538 pixels
  27. Display aspect ratio : 2.40:1
  28. Original display aspect ratio : 2.40:1
  29. Frame rate mode : Constant
  30. Frame rate : 25.000 FPS
  31. Color space : YUV
  32. Chroma subsampling : 4:2:0
  33. Bit depth : 8 bits
  34. Scan type : Progressive
  35. Bits/(Pixel*Frame) : 0.076
  36. Stream size : 850 MiB (91%)
  37. Writing library : x264 core 155 r2917 0a84d98
  38. Encoding settings : cabac=1 / ref=1 / deblock=1:0:0 / analyse=0x3:0x3 / me=dia / subme=1 / psy=1 / psy_rd=1.00:0.00 / mixed_ref=0 / me_range=16 / chroma_me=1 / trellis=0 / 8x8dct=1 / cqm=0 / deadzone=21,11 / fast_pskip=1 / chroma_qp_offset=0 / threads=17 / lookahead_threads=2 / sliced_threads=0 / nr=0 / decimate=1 / interlaced=0 / bluray_compat=0 / constrained_intra=0 / bframes=3 / b_pyramid=2 / b_adapt=1 / b_bias=0 / direct=1 / weightb=1 / open_gop=0 / weightp=1 / keyint=250 / keyint_min=25 / scenecut=40 / intra_refresh=0 / rc=abr / mbtree=0 / bitrate=1380 / ratetol=1.0 / qcomp=0.60 / qpmin=0 / qpmax=69 / qpstep=4 / ip_ratio=1.40 / pb_ratio=1.30 / aq=1:1.00
  39. Codec configuration box : avcC
  40. Audio
  41. ID : 2
  42. Format : AAC LC
  43. Format/Info : Advanced Audio Codec Low Complexity
  44. Codec ID : mp4a-40-2
  45. Duration : 1 h 30 min
  46. Duration_LastFrame : -1 ms
  47. Bit rate mode : Constant
  48. Bit rate : 128 kb/s
  49. Channel(s) : 2 channels
  50. Channel layout : L R
  51. Sampling rate : 44.1 kHz
  52. Frame rate : 43.066 FPS (1024 SPF)
  53. Compression mode : Lossy
  54. Stream size : 82.8 MiB (9%)
  55. Language : English
  56. Default : Yes
  57. Alternate group : 1
Comments powered by Disqus